User Info

ADS

Torrent’s details
Name Playful Kiss Extras YouTube Special Edition (2010) Complete
  You will need to Register or Login to download!
Info Hash 2e8bad3ce58482df4870ecac6fd205a4c21ce0a7
Description


https://www.youtube.com/user/ytkiss

Title: 장난스런 키스 / Jangnanseureon Kiss
AKA: Playful Kiss, Naughty Kiss, It Started With A Kiss
Genre: Comedy, Romance, School
Naughty Kiss YouTube Special Edition Episodes: 7
Naughty Kiss Seung Jo's Diary Episodes: 7
Subtitles: English (by viikii)

Main Cast
Kim Hyun Joong as Baek Seung Jo
Jung So Min as Oh Ha Ni
Lee Tae Sung as Bong Joon Gu
Lee Si Young as Yoon He Ra
Jung Hye Young as Hwang Geum Hee (Seung Jo's mother)
Oh Kyung Soo as Baek Soo Chang (Seung Jo's father)
Choi Won Hong as Baek Eun Jo (Seung Jo's brother)
Kang Nam Gil as Oh Ki Dong (Ha Ni's father)
Hong Yoon Hwa as Jung Joo Ri (Ha Ni's friend)
Yoon Seung Ah as Dok Go Min Ah (Ha Ni's friend)

The YouTube Special Edition Episodes are continuing the story of Oh Ha Ni and Baek Seung Jo from the original series.

General
Complete name                    : Naughty Kiss Ep.01 YouTube Special Edition.mp4
Format                           : MPEG-4
Format profile                   : Base Media / Version 2
Codec ID                         : mp42
File size                        : 200 MiB
Duration                         : 11mn 41s
Overall bit rate                 : 2 398 Kbps
Encoded date                     : UTC 2010-11-01 09:19:04
Tagged date                      : UTC 2010-11-01 09:19:04
gsst                             : 0
gstd                             : 701266
gssd                             : B3A1B1BC8HH1288694627481625
gshh                             : v13.lscache6.c.youtube.com

Video
ID                               : 1
Format                           : AVC
Format/Info                      : Advanced Video Codec
Format profile                   : High@L3.1
Format settings, CABAC           : Yes
Format settings, ReFrames        : 1 frame
Codec ID                         : avc1
Codec ID/Info                    : Advanced Video Coding
Duration                         : 11mn 41s
Bit rate mode                    : Variable
Bit rate                         : 2 263 Kbps
Maximum bit rate                 : 9 351 Kbps
Width                            : 1 280 pixels
Height                           : 720 pixels
Display aspect ratio             : 16:9
Frame rate mode                  : Variable
Frame rate                       : 29.970 fps
Minimum frame rate               : 29.412 fps
Maximum frame rate               : 30.303 fps
Color space                      : YUV
Chroma subsampling               : 4:2:0
Bit depth                        : 8 bits
Scan type                        : Progressive
Bits/(Pixel*Frame)               : 0.082
Stream size                      : 189 MiB (94%)
Tagged date                      : UTC 2010-11-01 09:19:14

Audio
ID                               : 2
Format                           : AAC
Format/Info                      : Advanced Audio Codec
Format version                   : Version 4
Format profile                   : LC
Format settings, SBR             : No
Codec ID                         : 40
Duration                         : 11mn 41s
Bit rate mode                    : Variable
Bit rate                         : 128 Kbps
Maximum bit rate                 : 200 Kbps
Channel(s)                       : 2 channels
Channel positions                : Front: L R
Sampling rate                    : 44.1 KHz
Stream size                      : 10.7 MiB (5%)
Title                            : © 2007 Google Inc. v08.13.2007.
Encoded date                     : UTC 2010-11-01 09:19:09
Tagged date                      : UTC 2010-11-01 09:19:14

IMDB
Category Korean TV 720p-1080p
Rating
Size 1.97 GB
Show/Hide Files
31 files
AddDate 30/11/2010
Uploader ANONYMOUS
Speed 0 KB/sec
Down 1674 times
peers seeds: 4, leechers: 1 = 5 peers
Who thanked
Report
Reseed


27/06/2014 11.54 am

full version of season 2 please. Thanks a lot
27/06/2014 11.52 am

Do you have the full version of Season 2? please upload please please Thanks a lot
03/12/2013 02.49 pm

Thank you for this... smile1.gifgrin.gif
29/04/2013 12.39 am

Thanks a million
grin.gif
29/04/2013 12.39 am

Thanks a million
grin.gif
29/04/2013 12.39 am

Thanks a million
grin.gif
29/04/2013 12.39 am

Thanks a million
grin.gif
29/04/2013 12.39 am

Thanks a million
grin.gif
29/04/2013 12.39 am

Thank a million
grin.gif
25/09/2012 07.24 pm

can u tell me wr can i find eng subs plzzzz
29/08/2012 12.56 am

thank you so much i was searching those special episodes for a long time!!!thumbsup.gif
24/06/2012 03.28 am

Is there eng subs for this? In the description it says eng subs but I don't see a download for them, and other comments state there is none.
06/09/2011 04.28 am

gettora will always be the BEST!!!! angel.gif
11/06/2011 07.56 pm

can someone tell me where can i get the engkish sub for this..plsss....thanks in advance!!!
22/05/2011 01.09 am

Tnkq grin.gif
17/05/2011 06.14 pm

Thnx alot >> Luv it wub.gif angel.gif
12/05/2011 07.33 am

After I download I can't play the files. Can you please tell me how to play the files.
04/05/2011 07.47 pm

how come there's no subtitle?
11/04/2011 01.50 pm

can someone tell us the correct order to watch them? is it the special first or the diary?
25/02/2011 12.43 am

Kim Hyun Joong wub.gifwub.gifwub.gif thank you smile2.gif
22/02/2011 10.12 pm

love this drama grin.gifthumbsup.gifthumbsup.gifwub.gif
08/02/2011 10.25 pm

Thanks so much!!!!!!!!!!!! Kim Hyun Joong 4everlove.gifsmartass.gifdrunk.gifstrongbench.gif
29/01/2011 07.04 pm

thank you grin.gif grin.gif grin.gif
16/12/2010 11.21 pm

Thank you! smile1.gif
30/11/2010 02.38 am

this is an extra, after the series type. it is not the same as the other torrents on here already. it has scenes from after the ending of the tv series.




ADS