User Info

ADS

Torrent’s details
Name Jawani Ki Khel
  You will need to Register or Login to download!
Info Hash ffba7ec31a135d8b9f2a60aa5c49b991ed936a94
Description General
Complete name                  : Jawani Ki Khel.avi
Format                         : AVI
Format/Info                    : Audio Video Interleave
File size                      : 700 MiB
Duration                       : 1h 14mn
Overall bit rate mode          : Variable
Overall bit rate               : 1 308 Kbps
Writing application            : VirtualDubMod 1.5.4.1 (build 2178/release)
Writing library                : VirtualDubMod build 2178/release

Video
ID                             : 0
Format                         : MPEG-4 Visual
Format profile                 : Advanced Simple@L5
Format settings, BVOP          : 1
Format settings, QPel          : No
Format settings, GMC           : No warppoints
Format settings, Matrix        : Custom
Codec ID                       : XVID
Codec ID/Hint                  : XviD
Duration                       : 1h 14mn
Bit rate                       : 995 Kbps
Width                          : 608 pixels
Height                         : 352 pixels
Display aspect ratio           : 1.727
Frame rate                     : 25.000 fps
Color space                    : YUV
Chroma subsampling             : 4:2:0
Bit depth                      : 8 bits
Scan type                      : Progressive
Compression mode               : Lossy
Bits/(Pixel*Frame)             : 0.186
Stream size                    : 533 MiB (76%)
Writing library                : XviD 1.2.1 (UTC 2008-12-04)

Audio
ID                             : 1
Format                         : MPEG Audio
Format version                 : Version 1
Format profile                 : Layer 3
Mode                           : Joint stereo
Mode extension                 : MS Stereo
Codec ID                       : 55
Codec ID/Hint                  : MP3
Duration                       : 1h 14mn
Bit rate mode                  : Variable
Bit rate                       : 300 Kbps
Channel(s)                     : 2 channels
Sampling rate                  : 48.0 KHz
Compression mode               : Lossy
Stream size                    : 160 MiB (23%)
Alignment                      : Aligned on interleaves
Interleave, duration           : 24 ms (0.60 video frame)
Interleave, preload duration   : 499 ms
Writing library                : LAME3.98r
Encoding settings              : -m j -V 4 -q 2 -lowpass 20.5 --abr

IMDB No IMDB ID been added..
Category India - Erotica/+18
Rating
Size 700.01 MB
Show/Hide Files
1 file
AddDate 13/12/2012
Uploader ANONYMOUS
Speed 0 KB/sec
Down 291 times
peers seeds: 2, leechers: 3 = 5 peers
Who thanked
Report
Reseed


No comments...




ADS