User Info

ADS

Torrent’s details
Name Ip.Man: The.Final.Fight.2013.HDTV.720P.X264.AC3-DWR
  You will need to Register or Login to download!
Info Hash ff8fc4b7c1234d1ccec45f1dc4e4de8ac80224e4
Description Ip Man:The Final Fight 2013





AKA: 葉問-終極一戰
IMDB LINK: http://www.imdb.com/title/tt2495118/
Cast: Jordan Chan, Eric Tsang, Anthony Wong Chau-Sang
Director: Herman Yau
Genre:  Action | Martial Arts
Runtime: 102 min
Country: Hong Kong
Language: Mandarin
Audio: Mandarin
Subtitles: Chinese Hard Subtitles


Plot:

In postwar Hong Kong, legendary Wing Chun grandmaster Ip Man is reluctantly called into action once more, when what begin as simple challenges from rival kung fu styles soon draw him into the dark and dangerous underworld of the Triads. Now, to defend life and honor, he has no choice but to fight one last time. (IMDb)


Code

RELEASE.NAME...: Ip.Man:The.Final.Fight.2013.HDTV.720P.X264.AC3-DWR.mkv
IMDB.LINK......: http://www.imdb.com/title/tt2495118/
GENRE..........: Action
RUN.TIME.......: 1h 40mn
VIDEO.CODEC....: MPEG4AVC@High Profile L4.1, 30 fps
BIT.RATE.......: 4939 Kbps, 3.46 GB
RESOLUTION.....: 1280 x 536, 2.40:1
AUDIO1.........: Mandarin AC-3 2.0 @ 192 Kbps
ENCODER........: DWR










Full Media Info -
Spoiler:show


Code

General
Unique ID                                : 224960811638382703095463228419190879101 (0xA93DE0582207AE7F958961CDA538F37D)
Complete name                            : Ip.Man:The.Final.Fight.2013.HDTV.720P.X264.AC3-DWR.mkv
Format                                   : Matroska
Format version                           : Version 2
File size                                : 3.46 GiB
Duration                                 : 1h 40mn
Overall bit rate                         : 4 939 Kbps
Encoded date                             : UTC 2013-03-29 12:27:25
Writing application                      : mkvmerge v5.4.0 ('Piper') built on Mar 10 2012 13:34:39
Writing library                          : libebml v1.2.3 + libmatroska v1.3.0

Video
ID                                       : 1
Format                                   : AVC
Format/Info                              : Advanced Video Codec
Format profile                           : High@L4.1
Format settings, CABAC                   : Yes
Format settings, ReFrames                : 9 frames
Muxing mode                              : Header stripping
Codec ID                                 : V_MPEG4/ISO/AVC
Duration                                 : 1h 40mn
Bit rate                                 : 4 750 Kbps
Width                                    : 1 280 pixels
Height                                   : 536 pixels
Display aspect ratio                     : 2.40:1
Frame rate                               : 30.000 fps
Color space                              : YUV
Chroma subsampling                       : 4:2:0
Bit depth                                : 8 bits
Scan type                                : Progressive
Bits/(Pixel*Frame)                       : 0.231
Stream size                              : 3.25 GiB (94%)
Writing library                          : x264 core 130 r2273 b3065e6
Encoding settings                        : cabac=1 / ref=9 / deblock=1:-3:-3 / analyse=0x3:0x133 / me=umh / subme=9 / psy=1 / psy_rd=1.10:0.00 / mixed_ref=1 / me_range=32 / chroma_me=1 / trellis=2 / 8x8dct=1 / cqm=0 / deadzone=21,11 / fast_pskip=0 / chroma_qp_offset=-2 / threads=12 / lookahead_threads=1 / sliced_threads=0 / nr=0 / decimate=0 / interlaced=0 / bluray_compat=0 / constrained_intra=0 / bframes=6 / b_pyramid=2 / b_adapt=2 / b_bias=0 / direct=3 / weightb=1 / open_gop=0 / weightp=2 / keyint=250 / keyint_min=24 / scenecut=40 / intra_refresh=0 / rc_lookahead=120 / rc=2pass / mbtree=1 / bitrate=4750 / ratetol=1.0 / qcomp=0.60 / qpmin=0 / qpmax=69 / qpstep=4 / cplxblur=20.0 / qblur=0.5 / vbv_maxrate=38000 / vbv_bufsize=32000 / nal_hrd=none / ip_ratio=1.40 / aq=1:0.90
Default                                  : Yes
Forced                                   : No

Audio
ID                                       : 2
Format                                   : AC-3
Format/Info                              : Audio Coding 3
Mode extension                           : CM (complete main)
Format settings, Endianness              : Big
Muxing mode                              : Header stripping
Codec ID                                 : A_AC3
Duration                                 : 1h 40mn
Bit rate mode                            : Constant
Bit rate                                 : 192 Kbps
Channel(s)                               : 2 channels
Channel positions                        : Front: L R
Sampling rate                            : 48.0 KHz
Bit depth                                : 16 bits
Compression mode                         : Lossy
Stream size                              : 138 MiB (4%)
Default                                  : Yes
Forced                                   : No







Enjoy and Seed!
IMDB
IMDB Extra
More.Info
Category Hong Kong Movie 720p-1080p
Rating
Size 3.46 GB
Show/Hide Files
1 file
AddDate 30/03/2013
Uploader ANONYMOUS
Speed 0 KB/sec
Down 448 times
peers seeds: 4, leechers: 0 = 4 peers
Who thanked
Report
Reseed


24/12/2013 04.53 pm

Honestly, a Chinese kung fu movie is not a Chinese kung fu movie if you do not...I repeat "do not use a real kung fu skilled actor to play the main role". I'm sure this actor is one of the well known actor in Hong Kong but really guys who give a shit!! We'll here to watch a good kick ass kung fu movie!! Especially if this is going to be Yip's last Fucking fight of his life... for fuck sake make Mr. Yip look his best for his last moment in life!!!
20/04/2013 01.54 pm

I NEED A TRUE SUBTITLE ENGLISH  cool2.gif
15/04/2013 06.54 am

Just watched the trailer.  Ip Man's Chinese accent sounds weird... is that intentional? tongue.gif
15/04/2013 06.53 am

Just watched the trailer.  Ip Man's Chinese accent sounds weird... is that intentional? tongue.gif
10/04/2013 07.51 pm

English subtitles are still poor...it will be awhile until we can get some decent english subs or until someone actually takes the time to translate it themselves...
10/04/2013 03.42 am

Is the English subittle alrite?
06/04/2013 10.10 am


i know who Anthony Wong is. was just kiddin'.

i seriously thought this was the third in the trilogy though.
03/04/2013 05.11 pm


Quote:
what the fuck happened to Donnie Yen? Who is this old dude?



Donnie Yen appeared in Wilson Yip's Ip Man movies. This movie is not related to that series except in that it is about the same historical figure. That old dude is Anthony Wong, one of Hong Kong's most famous and most enduring actors.
02/04/2013 10.11 am


what the fuck happened to Donnie Yen? Who is this old dude?
31/03/2013 12.32 am

Can someone please upload a cantonese version soon.

It would be very much appreciated.

Thank you.
30/03/2013 02.17 pm

Thanks!smile1.gif
30/03/2013 01.44 pm

:bow:




ADS