User Info

ADS

Torrent’s details
Name Hooray For Love 2011 Complete Small
  You will need to Register or Login to download!
Info Hash febe7b68fe664c96a6a89fbc10c1b1b3eda03d79
Description









Title: ????? / Aejungmanmanse
Also known as: Long Live Love
Previously known as: ?? ?? ?? / The Woman Who Never Loses
Genre: Romance
Episodes: TBA
Broadcast network: MBC
Broadcast period: 2011-Jul-16 to TBA
Air time: Saturday & Sunday 21:45

Brief Info
The drama is about the success story of a woman named Jae-mi (Lee Bo-young) who divorces her loser husband (Jin Yi-han) and finds new love with the lawyer hired to invalidate their divorce (Lee Tae-sung).

General
Complete name                    : Hooray For Love - 01.mp4
Format                           : MPEG-4
Format profile                   : Base Media
Codec ID                         : isom
File size                        : 203 MiB
Duration                         : 1h 4mn
Overall bit rate                 : 444 Kbps
Encoded date                     : UTC 2011-07-15 20:55:46
Tagged date                      : UTC 2011-07-15 20:55:46

Video
ID                               : 1
Format                           : AVC
Format/Info                      : Advanced Video Codec
Format profile                   : High@L3.0
Format settings, CABAC           : Yes
Format settings, ReFrames        : 8 frames
Codec ID                         : avc1
Codec ID/Info                    : Advanced Video Coding
Duration                         : 1h 4mn
Bit rate mode                    : Variable
Bit rate                         : 400 Kbps
Maximum bit rate                 : 1 219 Kbps
Width                            : 624 pixels
Height                           : 352 pixels
Display aspect ratio             : 16:9
Frame rate mode                  : Constant
Frame rate                       : 29.970 fps
Color space                      : YUV
Chroma subsampling               : 4:2:0
Bit depth                        : 8 bits
Scan type                        : Progressive
Bits/(Pixel*Frame)               : 0.061
Stream size                      : 183 MiB (90%)
Title                            : Video
Writing library                  : x264 core 115 r1995 c1e60b9
Encoding settings                : cabac=1 / ref=8 / deblock=1:-2:-1 / analyse=0x3:0x133 / me=umh / subme=6 / psy=1 / psy_rd=1.00:0.00 / mixed_ref=1 / me_range=16 / chroma_me=1 / trellis=1 / 8x8dct=1 / cqm=0 / deadzone=21,11 / fast_pskip=0 / chroma_qp_offset=-4 / threads=12 / sliced_threads=0 / nr=0 / decimate=1 / interlaced=0 / bluray_compat=0 / constrained_intra=0 / bframes=16 / b_pyramid=2 / b_adapt=1 / b_bias=0 / direct=3 / weightb=1 / open_gop=0 / weightp=2 / keyint=250 / keyint_min=25 / scenecut=40 / intra_refresh=0 / rc=2pass / mbtree=0 / bitrate=400 / ratetol=1.0 / qcomp=0.60 / qpmin=0 / qpmax=69 / qpstep=4 / cplxblur=20.0 / qblur=0.5 / ip_ratio=1.40 / pb_ratio=1.30 / aq=0
Encoded date                     : UTC 2011-07-15 20:55:46
Tagged date                      : UTC 2011-07-15 20:55:55

Audio
ID                               : 2
Format                           : AAC
Format/Info                      : Advanced Audio Codec
Format profile                   : HE-AAC / LC
Codec ID                         : 40
Duration                         : 1h 4mn
Bit rate mode                    : Variable
Bit rate                         : 40.0 Kbps
Maximum bit rate                 : 52.7 Kbps
Channel(s)                       : 2 channels
Channel positions                : Front: L R
Sampling rate                    : 48.0 KHz / 24.0 KHz
Compression mode                 : Lossy
Stream size                      : 18.3 MiB (9%)
Encoded date                     : UTC 2011-07-15 20:55:54
Tagged date                      : UTC 2011-07-15 20:55:55

ENGLISH SOFTSUBBED BY DARSMURFSUB

Cast

Lee Bo Young as Kang Jae Mi
Lee Tae Sung as Byun Dong Woo
Jin Yi Han as Han Jung Soo

Extended Cast

Chun Ho Jin as Kang Hyung Do
Bae Jong Ok as Oh Jung Hee
Byun Jung Soo as Byun Joo Ri
Yoon Hyun Sook as Oh Jung Shim
Han Yeo Reum as Chae Hee Joo
Ahn Sang Tae (???) as Nam Dae Moon
Kim Yoo Bin as Nam Da Reum
Kim Soo Mi as Crystal Park
Park In Hwan as Byun Choon Nam
Park Ha Young as Kang Se Ra
Seo In Young as In Young (cameo, eps 1-3)
Park Shi Eun as Nam Ji Eun (cameo)
Jo Yeon Woo as Director Park (cameo)

Production Credits
Producer:
Director: Joo Sung Woo (???)
Screenwriter: Park Hyun Joo

Recognitions
2011 MBC Drama Awards:
Mini Series Excellence Award, Actress (Lee Bo Young)
Mini Series Golden Acting Award (Bae Jong Ok)
Child Actress Award (Kim Yoo Bin)
IMDB No IMDB ID been added..
Category Korean TV
Rating
Size 11.86 GB
Show/Hide Files
114 files
AddDate 25/04/2012
Uploader ANONYMOUS
Speed 2.12 KB/sec
Down 294 times
peers seeds: 9, leechers: 2 = 11 peers
Who thanked
Report
Reseed


01/09/2013 01.57 pm

The english subs for ep 5 stopped working.  Is there a updated srt file for this?
Thanks




ADS