User Info

ADS

Torrent’s details
Name City Hunter 450p-AVI (Complete)(OST & Eng Sub Inc. ) ( Small File size)
  You will need to Register or Login to download!
Info Hash fbd6bf38a9dba89ba746e6be6177f5fd20267e5e
Description



Details

Title: 시티헌터 / Sitihunteo
Genre: Action, suspense, romance
Episodes: 20
Broadcast network: SBS
Broadcast period: 2011-May-25 to 2011-Jul-28
Subtitle: English By WITHS2 & VIKI

Synopsis:

The story takes place in Seoul, 2011. Lee Yoon Sung is a talented MIT-graduate who works on the international communications team in the Blue House. He plans revenge on five politicians who caused his father's death with his surrogate father Lee Jin Pyo and eventually becomes a "City Hunter."
Cast

Main Cast

   Lee Min Ho as Lee Yoon Sung / John Lee / Poo Chai
   Park Min Young as Kim Na Na
   Lee Joon Hyuk as Kim Young Joo

City Hunter Clique

   Kim Sang Joong as Lee Jin Pyo / Steve Lee
   Kim Sang Ho as Bae Shik Joong / Bae Man Deok
   Jung Joon as Kim Sang Gook (Jin Pyo's henchman)

The Blue House

   Lee Seung Hyung as Song Young Deok
   Baek Seung Hyun as Park Ho Shik
   Yang Jin Sung as Shin Eun Ah (bodyguard, Na Na's friend)
   Lee Kwang Soo as Go Ki Joon

Group of Five

   Chun Ho Jin as Choi Eung Chan (President)
   Choi Jung Woo as Cheon Jae Man (Haewon Group's president)
   Choi Il Hwa as Kim Jong Shik (Myung Moon University's president, Young Joo's father)
   Choi Sang Hoon as Seo Yong Hak (Minister of Defence)
   Lee Hyo Jung as Lee Kyung Wan (senator)




Code
Format                                   : AVI
Format/Info                              : Audio Video Interleave
File size                                : 349 MiB
Duration                                 : 1h 4mn
Overall bit rate                         : 762 Kbps
Writing application                      : VirtualDubMod 1.5.10.2 (build 2540/release)
Writing library                          : VirtualDub build 32842/release

Video
ID                                       : 0
Format                                   : AVC
Format/Info                              : Advanced Video Codec
Format profile                           : High@L5.1
Format settings, CABAC                   : Yes
Format settings, ReFrames                : 5 frames
Codec ID                                 : H264
Duration                                 : 1h 4mn
Bit rate                                 : 622 Kbps
Width                                    : 800 pixels
Height                                   : 450 pixels
Display aspect ratio                     : 16:9
Frame rate                               : 29.970 fps
Color space                              : YUV
Chroma subsampling                       : 4:2:0
Bit depth                                : 8 bits
Scan type                                : Progressive
Bits/(Pixel*Frame)                       : 0.058
Stream size                              : 285 MiB (82%)
Writing library                          : x264 core 57 svn-715bm
Encoding settings                        : cabac=1 / ref=5 / deblock=1:0:0 / analyse=0x3:0x13 / me=umh / subme=6 / brdo=0 / mixed_ref=1 / me_range=16 / chroma_me=1 / trellis=1 / 8x8dct=1 / cqm=0 / deadzone=21,11 / chroma_qp_offset=0 / threads=1 / nr=0 / decimate=1 / mbaff=0 / bframes=0 / keyint=250 / keyint_min=25 / scenecut=40 / rc=2pass / bitrate=622 / ratetol=1.0 / rceq='blurCplx^(1-qComp)' / qcomp=0.60 / qpmin=10 / qpmax=51 / qpstep=4 / cplxblur=20.0 / qblur=0.5 / ip_ratio=1.40

Audio
ID                                       : 1
Format                                   : MPEG Audio
Format version                           : Version 1
Format profile                           : Layer 3
Mode                                     : Joint stereo
Mode extension                           : MS Stereo
Codec ID                                 : 55
Codec ID/Hint                            : MP3
Duration                                 : 1h 4mn
Bit rate mode                            : Constant
Bit rate                                 : 128 Kbps
Channel(s)                               : 2 channels
Sampling rate                            : 48.0 KHz
Compression mode                         : Lossy
Delay relative to video                  : 100ms
Stream size                              : 58.7 MiB (17%)
Alignment                                : Split accross interleaves
Interleave, duration                     : 33 ms (1.00 video frame)
Interleave, preload duration             : 500 ms


IMDB
IMDB Extra
More.Info
Category Korean TV
Rating N/A
Size 7.51 GB
Show/Hide Files
89 files
AddDate 23/05/2013
Uploader ANONYMOUS
Speed 0 KB/sec
Down 135 times
peers seeds: 8, leechers: 1 = 9 peers
Who thanked
Report
Reseed


19/12/2013 05.38 am

thnk smile1.gif
11/12/2013 09.25 am

Thanks for the Post....
26/06/2013 09.25 pm

Thanks for the share!

grin.gif Keep up the good work!!!




ADS