User Info

ADS

Torrent’s details
Name Love, Now (2012) Complete
  You will need to Register or Login to download!
Info Hash fadc4ff22c61e0c99932edb028e1ff03aea3e428
Description











[url]http://en.wikipedia.org/wiki/Love,_Now[/url]
[url]http://wiki.d-addicts.com/Love,_Now[/url]

Title: 真愛趁現在 / Zhen Ai Chen Xian Zai
English title: Love, Now
Genre: Family, Romance
Episodes: 72
Broadcast network: SETTV
Broadcast period: 2012-Oct-31 to 2013-Mar-05
Air time: Monday to Friday 21:00-22:00
Language: Mandarin
Country: Taiwan
Subtitles: Chinese (hardsubbed) | English (Included)

Note: The Subtitles for episodes 64-72 timings are off. I tried to sync them but the timing seems to increased gradually by the second so I ended up leaving it alone. Hopefully, a more experience synchronizer will step in to help and share with us. grin.gif

Cast

Annie Chen as Yang Yi Ru 楊奕茹
George Hu as Lan Shi De 藍仕德
Dou Zhi Kong as Sun Qi Ming 孫啟鳴

Lan Family:
Shen Hai Rong as Grandma Lan 藍奶奶
Yang Jie Mie (楊潔玫) as Mrs. Lan 藍媽
Yan Jia Le as Lan Yi Ping 藍以蘋
Li Wei Wei (李維維) as Lan Shi Yun 藍仕筠

Yang Family:
Shen Meng Sheng as Yang Hao 楊浩
Yang Yong Cun (楊詠存) as Yang Yi Qing 楊奕晴

Others:
Harry Zhang as Zheng Yu Xiang 鄭雨翔
Wei Man (魏蔓) as He Cai Rong 何采容
Gao Zhen Peng (高振鵬) as Uncle Kang 康叔
Liu Xiang Jun (劉香君) as Su Mei 素梅
Tie Ke (鐵克) as Xiao Wei 小偉
Hank Wu as Guo Zi Yuan 郭子元
Huang Jian Hao (黃建豪) as Angus

Synopsis

Yang Yi-ru, as a workaholic never had time for a holiday. After Yang Yi-ru was conned by her family and friends that she had been diagnosed with cancer and had only six months to live, she was sent aboard for a holiday to help her take a break from her job, before she even had time to respond to the shocking news she had just discovered. Still a state of shock from discovering she only had six months left, Yi-ru met Lan Shi-de, who was on a business trip. When Yi-ru told Shi-de that she only has six months left to live and that one of her dream was to get married and have kids, Shi-de proposed to Yi-ru. Not knowing that Shi-de actually had met her years ago and had fallen in love with her since that time, Yi-ru accepted his proposal.

Under the blue skies and on the white sandy beach with a red carpet covered in rose petals, Shi-de helped Yi-ru fulfilled her dream of getting married and also given her the dream wedding that she would want if she got married. From there on, Shi-de decided to accompany Yi-ru for the number of days she had left and when Yi-ru disappeared, Shi-de swore to find Yi-ru no matter what, because this time, he doesn't want to miss this chance like he did years ago when he met Yi-ru, not knowing the fact that Yi-ru had only six months to live was a lie that Yi-ru herself did not even know at first.

General
Complete name                  : Love Now E01.rmvb
Format                         : RealMedia
File size                      : 238 MiB
Duration                       : ~ 47mn 25s
Overall bit rate               : 664 Kbps

Video
ID                             : 1
Format                         : RealVideo 4
Codec ID                       : RV40
Codec ID/Info                  : Based on AVC (H.264), Real Player 9
Duration                       : 47mn 25s
Bit rate                       : 600 Kbps
Width                          : 720 pixels
Height                         : 540 pixels
Display aspect ratio           : 4:3
Frame rate                     : 29.970 fps
Bits/(Pixel*Frame)             : 0.052
Stream size                    : 204 MiB (86%)

Audio
ID                             : 0
Format                         : Cooker
Codec ID                       : cook
Codec ID/Info                  : Based on G.722.1, Real Player 6
Duration                       : 47mn 25s
Bit rate                       : 64.1 Kbps
Channel(s)                     : 2 channels
Sampling rate                  : 44.1 KHz
Bit depth                      : 16 bits
Stream size                    : 21.7 MiB (9%)






Author's Note: This is my very first upload. Please forgive me if there's any problems or errors. Let me know of them and I'll do my best to fix it.

I can only seed between 9pm - 8 pm EASTERN TIME. But I'll try to leave it on as long as I can.
IMDB No IMDB ID been added..
Category Taiwanese TV
Rating
Size 15.69 GB
Show/Hide Files
146 files
AddDate 01/05/2013
Uploader ANONYMOUS
Speed 0 KB/sec
Down 951 times
peers seeds: 22, leechers: 3 = 25 peers
Who thanked
Report
Reseed


24/09/2013 09.22 am

hi guys,

i'm watching this series right now.... i'm at episode 20... the format is in rmvb format, so it only play smoothly on real player without a subtitle, because i can't understand mandarin, i have no choice but to convert it to avi format so you can watch it on vlc with a subtitle and is not choppy... i used the wondershare ultimate converter.... hope this could help...
24/09/2013 07.47 am

THANK YOUUUUUUgrin.gif
05/08/2013 07.35 am

pls ignore previous comment. downloaded real player and found out video plays smoothly on real player.
04/08/2013 10.01 am

Don't know if it's just me but I have trouble playing all the episodes on VLC. the video is choppy and doesn't play smoothly from beginning to end. 85% of the video is green throughout so I decided to convert the file to mp4 which solved the appearance of the video but the sound is not synced with the video. any solutions? I really want to watch this series.
15/05/2013 12.11 pm

The subs to the last episodes will be ok to video from here
http://sugoikr.com/drama-2012/love-now/
03/05/2013 11.20 am

nvm fixed grin.gif
03/05/2013 09.40 am

mhm.. dunno why but the files i try to play with kmplayer are really choppy and vlc wont even play them =/
02/05/2013 02.35 am

@harukogirl, that's interesting. After reading the summary, I'm really starting to think the same way. The plots are similar. lol. You're on to something. And I'm off to find myself a copy of that book. ^_^
02/05/2013 01.02 am

Wow...the plot sounds EXACTLY like the book "Blue Castle" by L.M. Montgomery (best known for "Anne of Green Gables".....since I love that book, that's a good thing...wonder if it was based of it??

Thanks!
01/05/2013 11.44 pm

<.< slow, slow, slow..stuck on 20%.. oh well hopefully this won't take days to finish downloading =/ but when I do finish I'll continiue to seed for a month or two ^^




ADS