User Info

ADS

Torrent’s details
Name Mary.Stayed.Out.All.Night.E01.101108.HDTV.X264.720p-HAN
  You will need to Register or Login to download!
Info Hash faa017a25ee4ced36f225dedb3b4f1fd41ff57c1
Description


http://asianmediawiki.com/Marry_Me,_Mary!
http://www.hancinema.net/korean_drama_Marry_Me_v__Mary_e_.php
http://wiki.d-addicts.com/Mary_Stayed_Out_All_Night

Title: 매리는 외박중 / Maerineun Oebakjoong
AKA: Marry Me, Mary! / Mary Stayed Out All Night
Genre: Romance, Comedy
Episodes: 16
Broadcast network: KBS2
Broadcast period: 2010-Nov-08 to 2010-Dec-28
Air time: Monday & Tuesday 21:55
Language: Korean
Country: South Korea
Subtitles: English (by Midnight Dreams)
Alternative subtitles: http://withs2.com/view/marry-me-mary

Production Credits
Director: Hong Suk Goo
Original writing: Won Soo Yeon (원수연)
Screenwriter: In Eun Ah

Main Cast
Moon Geun Young as Wi Mae Ri
Jang Geun Suk as Kang Moo Kyul
Kim Jae Wook as Byun Jung In
Kim Hyo Jin as Seo Joon
Park Joon Gyu as Jung Suk (Jung In's father)
Park Sang Myun as Wi Dae Han (Mae Ri's father)
Lee Ah Hyun as Kam So Young (Moo Kyul's mother)
Shim Yi Young (심이영) as Director Bang
Lee Sun Ho as Lee An
Kim Min Gyu (김민규) as Ri No
Geum Ho Suk (금호석) as Yo Han
Park Chul Hyun (박철현) as Re Oh
Kim Hae Rim (김해림) as Ji Hye
Lee Eun as So Ra

Recognitions
2010 KBS Drama Awards: Netizens' Award (Jang Geun Suk)
2010 KBS Drama Awards: Best Couple Award (Moon Geun Young and Jang Geun Suk)

Synopsis
Wi Mae Ri is a stubborn woman and the daughter of a failed businessman without much experience in dating. She starts to date tough rocker Kang Moo Kyul. Problems arise when a perfect guy with a good background and prestigious education, Byun Jung In, gets in the way.

General
Complete name                    : Mary.Stayed.Out.All.Night.E01.101108.HDTV.X264.720p-HAN.avi
Format                           : AVI
Format/Info                      : Audio Video Interleave
File size                        : 1.57 GiB
Duration                         : 1h 5mn
Overall bit rate                 : 3 417 Kbps
Writing application              : VirtualDubMod 1.5.10.2 (build 2540/release)
Writing library                  : VirtualDubMod build 2540/release

Video
ID                               : 0
Format                           : AVC
Format/Info                      : Advanced Video Codec
Format profile                   : High@L5.1
Format settings, CABAC           : Yes
Format settings, ReFrames        : 2 frames
Codec ID                         : H264
Duration                         : 1h 5mn
Bit rate                         : 3 000 Kbps
Width                            : 1 280 pixels
Height                           : 720 pixels
Display aspect ratio             : 16:9
Frame rate                       : 29.970 fps
Color space                      : YUV
Chroma subsampling               : 4:2:0
Bit depth                        : 8 bits
Scan type                        : Progressive
Bits/(Pixel*Frame)               : 0.109
Stream size                      : 1.39 GiB (88%)
Writing library                  : x264 core 50 svn-569

Audio
ID                               : 1
Format                           : AC-3
Format/Info                      : Audio Coding 3
Mode extension                   : CM (complete main)
Codec ID                         : 2000
Duration                         : 1h 5mn
Bit rate mode                    : Constant
Bit rate                         : 384 Kbps
Channel(s)                       : 2 channels
Channel positions                : Front: L R
Sampling rate                    : 48.0 KHz
Bit depth                        : 16 bits
Video delay                      : 409ms
Stream size                      : 180 MiB (11%)
Alignment                        : Split accross interleaves
Interleave, duration             : 33 ms (1.00 video frame)
Interleave, preload duration     : 500 ms



IMDB No IMDB ID been added..
Category Korean TV 720p-1080p
Rating
Size 1.57 GB
Show/Hide Files
8 files
AddDate 10/11/2010
Uploader ANONYMOUS
Speed 0 KB/sec
Down 593 times
peers seeds: 0, leechers: 2 = 2 peers
Who thanked
Report
Reseed


20/07/2012 12.25 pm

Just download the complete episode.. this is just epi.1

to download you need a torrent (utorrent / bittorrent)
then click the title above
20/07/2012 11.32 am

can you help me im new here. i dont know how to download..tnx
03/08/2011 06.47 am

just DL the complete episode. its faster smile1.gif
20/11/2010 03.49 am

thankssmile2.gif
19/11/2010 12.32 am

Thanks so very much .. you guys are the best-est .. hehh heh
11/11/2010 05.06 pm

best!
11/11/2010 01.50 am

Why can't I download??? I have it in my utorrent but downloading is not starting.... HELP!
11/11/2010 12.33 am

waaahhh!! i love you gettora! Simply the best! Thanks! Thanks! Thanks! Keep the episodes coming... smile1.gif




ADS