User Info

ADS

Torrent’s details
Name Zombie Kg Pisang
  You will need to Register or Login to download!
Info Hash f8073e466960f0b83dadc6c4794660990331f4b2
Description

Title: ##Zombi Kg Pisang##
AKA: ##Zombi Kg Dusun##
Year: ##2007##
Original title: ##Zombi Kampung Pisang##
Runtime: ##1hr 33min##
Country: ##Malaysia##
Language: ##Malay##
Subtitles: ####English (.srt) Subtitle was prepared done by uploader, rename subtitle to srt if necessary, should work with vlc player####
Genre: ##Horror / Comedy##

Director: Mamat Khalid

Cast
Awie:Hussin (Main Actor)
AC Mizal: Mat Karan (Main Actor)
Shoffi Jikan: Sofi (Main Actor)
Ezlynn: Maimon (Main Actor)
Que Haidar: Deris (Main Actor)
Nadia Mustafar: Cikgu Munah (Sub Actor)
Hamid Gurkha: Pak Mail (Sub Actor)
Loloq:A. Kamsan (Sub Actor)
Jalil Hamid: Pak Munawir (Sub Actor)
Mazlan Pet Pet: Inspektor Cenehom (Sub Actor)
Zami Ismail: Pak Abu (Sub Actor)
Man Kadir: Pak Jabit (Sub Actor)
Adam Khalid:Adam (Sub Actor)

Plot / Synopsis


The peace and serenity of Kampung Pisang suddenly turned havoc and chaotic on one night.

The havoc started with the sudden death of Pak Abu when he fell off his bicycle on his way home. Three young villager who was idling near the road witness the incident and bought the corpse back to his house. The three of them informed Pak Jabit, the Head Villager.

Pak Jabit came to pay his respect at the house but he too, dropped down dead when he was examining the corpse of Pak Abu. The situation became more tense. As the three young villager discussed the incident, shouts of alarms startled them. Teacher Munah and Teacher Maimum, Pak Abu’s daughters informed that both the corpse are missing.

Chaos and confusion ensure Kampung Pisang that night. The villager congregate at the Villager Multi Purpose hall. In the confusion, more villager dropped down dead.

Suddenly the electricity supply was cut. The corpse became alive and started attacking the villagers. The police was informed and investigation conducted. The situation was in utter chaos as the villagers scattered to avoid being the zombie next victim.

What is the secret and reason of the situation……

A funny film on the first and only zombie film from Malaysia. The hero has a inferiority complex because he had not completed his SPM (O’Level) and the Zombie king is an upright zombie, advising fellow zombie to be good to each other, don’t smoke etc. More of a hilarious film than scary movie.

Film Won the Following Award :

Malaysia Film Festival 2007 – Best Poster
Malaysia Film Festival 2007 – Special Jury Award

http://www.imdb.com/title/tt1172550/



Technical Specs
Source: Internet, subtitle by uploader.
Group/Ripper: Thanks to kw for the subtitle, just made it up as we go along.

General
Complete name                    : G:BTZombie Kg Pisang.avi
Format                           : AVI
Format/Info                      : Audio Video Interleave
File size                        : 700 MiB
Duration                         : 1h 33mn
Overall bit rate                 : 1 045 Kbps
Writing application              : VirtualDubMod 1.5.4.1 (build 2178/release)
Writing library                  : VirtualDubMod build 2178/release

Video
ID                               : 0
Format                           : MPEG-4 Visual
Format profile                   : Advanced Simple@L5
Format settings, BVOP            : 1
Format settings, QPel            : No
Format settings, GMC             : No warppoints
Format settings, Matrix          : Custom
Codec ID                         : XVID
Codec ID/Hint                    : XviD
Duration                         : 1h 33mn
Bit rate                         : 913 Kbps
Width                            : 384 pixels
Height                           : 224 pixels
Display aspect ratio             : 16:9
Frame rate                       : 25.000 fps
Color space                      : YUV
Chroma subsampling               : 4:2:0
Bit depth                        : 8 bits
Scan type                        : Progressive
Compression mode                 : Lossy
Bits/(Pixel*Frame)               : 0.425
Stream size                      : 612 MiB (87%)
Writing library                  : XviD 1.2.0.dev47 (UTC 2006-11-01)

Audio
ID                               : 1
Format                           : MPEG Audio
Format version                   : Version 1
Format profile                   : Layer 3
Mode                             : Joint stereo
Mode extension                   : MS Stereo
Codec ID                         : 55
Codec ID/Hint                    : MP3
Duration                         : 1h 33mn
Bit rate mode                    : Variable
Bit rate                         : 119 Kbps
Nominal bit rate                 : 128 Kbps
Channel(s)                       : 2 channels
Sampling rate                    : 48.0 KHz
Compression mode                 : Lossy
Stream size                      : 79.8 MiB (11%)
Alignment                        : Aligned on interleaves
Interleave, duration             : 24 ms (0.60 video frame)
Interleave, preload duration     : 486 ms
Writing library                  : LAME3.97
Encoding settings                : -m j -V 4 -q 2 -lowpass 17 --abr 128

IMDB
IMDB Extra
More.Info
Category Other Asian Movies
Rating
Size 700.04 MB
Show/Hide Files
2 files
AddDate 15/03/2011
Uploader ANONYMOUS
Speed 0.93 KB/sec
Down 382 times
peers seeds: 1, leechers: 0 = 1 peers
Who thanked
Report
Reseed


16/03/2011 01.26 am

rain stopped, resuming.......

[img]smile1.gifsmile1.gifsmile1.gifsmile1.gifsmile1.gifsmile1.gifsmile1.gifsmile1.gifsmile1.gifsmile1.gifsmile1.gif[/img]
16/03/2011 12.11 am

sorry guys n gals, stopping awhile due to lighting strike in my area, will resume once the rain stop....thanks for your patience

[img]cry.gifcry.gifcry.gifcry.gifcry.gifcry.gifcry.gifcry.gifcry.gifcry.gifcry.gif[/img]




ADS