User Info

ADS

Torrent’s details
Name Viva Hot Babes Videoke 1-3 [CAT 3]
  You will need to Register or Login to download!
Info Hash f4cb6d6e5896729128d778399e03e15088a09561
Description Note/Warning: Contains Nudity

Cast: Viva Hotbabes (Batch 1, includes Maui Taylor, Katya Santos, Andrea Del Rosario and a lot more)
Directed: Rico Guitierrez
Genre: Erotic Videoke/ Erotic Video
Runtime: 02:21:48
Country: Philippines
Language: English / Tagalog
Subtitles: English / Tagalog (for the songs as videoke only)

Description:
Viva Hotbabes models, dances and seduces you as you sing along to top songs back in the early 2000's, filmed in different locations, the beautiful viva hotbabes will entice you while you sing your hearts contempt, if you can read the song lyrics that is.. wink.giftongue.gif

Screenshots:




General
Complete name                            : VIVA HOT BABES VIDEOKE.AVI
Format                                   : AVI
Format/Info                              : Audio Video Interleave
File size                                : 888 MiB
Duration                                 : 2h 21mn
Overall bit rate                         : 875 Kbps
Writing application                      : VirtualDubMod 1.5.4.1 (build 2178/release)
Writing library                          : VirtualDubMod build 2178/release

Video
ID                                       : 0
Format                                   : MPEG-4 Visual
Format profile                           : Advanced Simple@L5
Format settings, BVOP                    : 1
Format settings, QPel                    : No
Format settings, GMC                     : No warppoints
Format settings, Matrix                  : Custom
Codec ID                                 : XVID
Codec ID/Hint                            : XviD
Duration                                 : 2h 21mn
Bit rate                                 : 674 Kbps
Width                                    : 640 pixels
Height                                   : 480 pixels
Display aspect ratio                     : 4:3
Frame rate                               : 29.970 fps
Color space                              : YUV
Chroma subsampling                       : 4:2:0
Bit depth                                : 8 bits
Scan type                                : Progressive
Compression mode                         : Lossy
Bits/(Pixel*Frame)                       : 0.073
Stream size                              : 684 MiB (77%)
Writing library                          : XviD 1.2.0.dev47 (UTC 2006-11-01)

Audio
ID                                       : 1
Format                                   : MPEG Audio
Format version                           : Version 1
Format profile                           : Layer 3
Mode                                     : Joint stereo
Mode extension                           : MS Stereo
Codec ID                                 : 55
Codec ID/Hint                            : MP3
Duration                                 : 2h 21mn
Bit rate mode                            : Constant
Bit rate                                 : 192 Kbps
Channel(s)                               : 2 channels
Sampling rate                            : 48.0 KHz
Compression mode                         : Lossy
Stream size                              : 195 MiB (22%)
Alignment                                : Aligned on interleaves
Interleave, duration                     : 67 ms (2.00 video frames)
Interleave, preload duration             : 504 ms
Writing library                          : LAME3.97
Encoding settings                        : -m j -V 4 -q 2 -lowpass 18.6 -b 192
IMDB No IMDB ID been added..
Category Philippines - Erotic/+18
Rating
Size 887.55 MB
Show/Hide Files
1 file
AddDate 30/09/2012
Uploader ANONYMOUS
Speed 16.03 KB/sec
Down 1244 times
peers seeds: 8, leechers: 0 = 8 peers
Who thanked
Report
Reseed


12/12/2013 12.42 am

Very Soft.
Pointless unless you're 13 years old.




ADS