User Info

ADS

Torrent’s details
Name Love Rain (2012) Complete Series (hardsubbed)
  You will need to Register or Login to download!
Info Hash f32ccffaba73ae0af7fd998dcfdc1e70ea52cad5
Description






http://wiki.d-addicts.com/Love_Rain
http://www.hancinema.net/korean_drama_Love_Rain.php
http://asianwiki.com/Love_Rain_%28Korean_Drama%29
http://www.kbs.co.kr/drama/loverain/

Title: 사랑비 / Sarangbi
AKA: Love Rain
Genre: Romance, melodrama
Episodes: 20
Broadcast network: KBS2
Broadcast period: 2012-Mar-26 to 2012-May-29
Air time: Monday & Tuesday 21:55
Original Soundtrack: Love Rain OST
Language: Korean
Country: South Korea
Subtitles: English (hardsubbed) (credit to DramaFever)

Production Credits
Production Company: Yoon's Color
Director: Yoon Suk Ho
Screenwriter: Oh Soo Yun

Main Cast

70s
   Jang Geun Suk as Seo In Ha
   Im Yoon Ah as Kim Yoon Hee
   Kim Si Hoo as Lee Dong Wook
   Son Eun Seo as Baek Hye Jung
   Seo In Guk (서인국) as Kim Chang Mo
   Hwang Bo Ra as Na In Sook

2012
   Jang Geun Suk as Seo Joon (In Ha's son)
   Im Yoon Ah as Jung Ha Na (Yoon Hee's daughter)
   Kim Si Hoo as Lee Sun Ho (Dong Wook's son)
   Jung Jin Young Seo In Ha (Seo Joon's dad)
   Lee Mi Sook as Kim Yoon Hee (Ha Na's mom)
   Kim Young Kwang as Han Tae Sung
   Oh Seung Yoon as Jo Soo
   Park Se Young (박세영) as Lee Mi Ho (Sun Ho's younger sister)
   Lee Chan Ho as Jang Soo
   Shin Ji Ho (신지호) as In Sung
   Kwon In Ha (권인하) as Lee Dong Wook
   Yoo Hye Ri as Baek Hye Jung
   Park Ji Il as Kim Chang Mo
   Seo In Guk (서인국) as Kim Jeon Sul

Recognitions
   2012 KBS Drama Awards: Netizens' Award (Im Yoon Ah)






Synopsis
"Love Rain" depicts a 1970's pure love and a love from the present day at the same time. It shows how the children of a previous ill-fated couple, who met in the 1970s, managed to meet and fall in love. Seo In Ha and Kim Yoon Hee, an art student and a shy beauty, met and fell in love with each other during college in the 1970s but unfortunately their love was fated to never be. Now in the present 21st century Korea, Seo In Ha's son, Seo Joon (a liberal photographer) meets and falls in with the daughter of Kim Yoon Hee, Jung Ha Na, a cheerful and energetic girl who's personality is different from her mother's. Will their love for each other keep them together or will they have to face the same fate as their parents?





General
Complete name                  : Love.Rain.E01.360p.TH.mp4
Format                         : MPEG-4
Format profile                 : Base Media
Codec ID                       : isom
File size                      : 250 MiB
Duration                       : 1h 3mn
Overall bit rate mode          : Variable
Overall bit rate               : 551 Kbps
Re-encoded by                  : TH

Video
ID                             : 1
Format                         : AVC
Format/Info                    : Advanced Video Codec
Format profile                 : Main@L3.1
Format settings, CABAC         : Yes
Format settings, ReFrames      : 3 frames
Codec ID                       : avc1
Codec ID/Info                  : Advanced Video Coding
Duration                       : 1h 3mn
Bit rate mode                  : Variable
Bit rate                       : 485 Kbps
Maximum bit rate               : 14.0 Mbps
Width                          : 640 pixels
Height                         : 360 pixels
Display aspect ratio           : 16:9
Frame rate mode                : Constant
Frame rate                     : 29.970 fps
Color space                    : YUV
Chroma subsampling             : 4:2:0
Bit depth                      : 8 bits
Scan type                      : Progressive
Bits/(Pixel*Frame)             : 0.070
Stream size                    : 220 MiB (88%)
Title                          : Love Rain E01 120326 HDTV H264 450p-KOR
Writing library                : x264 core 120 r2120 0c7dab9

Audio
ID                             : 2
Format                         : AAC
Format/Info                    : Advanced Audio Codec
Format profile                 : HE-AAC / LC
Codec ID                       : 40
Duration                       : 1h 3mn
Bit rate mode                  : Variable
Bit rate                       : 64.0 Kbps
Maximum bit rate               : 71.5 Kbps
Channel(s)                     : 2 channels
Channel positions              : Front: L R
Sampling rate                  : 48.0 KHz / 24.0 KHz
Compression mode               : Lossy
Stream size                    : 29.0 MiB (12%)







IMDB
IMDB Extra
More.Info
Category Korean TV
Rating
Size 4.88 GB
Show/Hide Files
20 files
AddDate 30/06/2012
Uploader ANONYMOUS
Speed 345.49 KB/sec
Down 2532 times
peers seeds: 19, leechers: 4 = 23 peers
Who thanked
Report
Reseed


19/03/2014 09.11 am

Thank you! smile1.gif
24/09/2013 01.45 pm

Seeds please! i m stuck up with 74% sad.gif
21/08/2013 10.56 pm

i really liked this drama and not only because i'm yoona and geun suk's fan. Although the script was poor, i liked the connection between them, and there were lots of cute scenes. Yoona is adorable and her acting improved alot.
04/08/2013 08.15 am

Love the camera work in this drama; it captures every landscape, every little detail beautifully. Thanks uploader 8D
08/06/2013 10.50 pm

Tnx Uploader!!!!!!!!!
Can you suggest some good korean drma for me, I already watch I Miss You, Love Rain and The Moon That Embraces The Sun. What else can you suggest me?angel.gif
30/05/2013 08.19 pm

Thank you! I really liked this drama a lot, great ending (for once grin.gif )
10/05/2013 03.57 pm

thank you so much grin.gif

please seed the download speed is very slow cry.gif
16/04/2013 03.40 pm

thank you
30/03/2013 01.59 am

thank you
04/03/2013 04.41 pm

ghggggghggggh
20/02/2013 12.38 pm

Thank you......................
12/11/2012 01.34 am

aww. im already a leecher and i'm sad i cant download it sad.gif
29/09/2012 08.31 pm

Honest unbiased review:

This was painfully boring. Too Cliche and very dated. Story starts ok but just goes south. This drama has a very POOR script and relied too heavily on the cuteness of the 2 lead characters.

It's really a shame that the writers were below crappy. The TV ratings didn't lie either. All 20 eps averaged 4.5% tv rating which was last and/or close to last throughout.

Final Verdict? SKIP IT. Unless you have tons of time to waste. And/Or if you're just a rabid biased fan of the leads that won't even care what i wrote... shame on you too; could've watched other hidden hit dramas that're lingering on this site waiting to be downloadedtongue.gif
24/08/2012 10.29 pm

Thanx so much for this! I adore Your taste and uploads. I swoon over JGS (Jang Geun Suk).
28/07/2012 03.25 pm

big help.. thanks.. ♥ can't wait to watch this again
23/07/2012 06.02 pm

Thanks smile1.gif
11/07/2012 06.48 pm

Thank you so much for uploading!! and great quality ^^ love Geum Jang suk Oohmy.gif:-
08/07/2012 04.01 pm

thank you very much for ur hard work!!!! smile1.gif)
08/07/2012 04.01 pm

thank you very much for ur hard work!!!! smile1.gif)
07/07/2012 04.58 am

I've been looking for this for a while now... thank you for the upload.  I love the start of the show with the first story...
04/07/2012 03.30 pm

thank you.....
02/07/2012 04.22 am

i think this torrent is dead.
30/06/2012 12.14 pm

very nice drama..smile1.gif can u upload runway cop korean movie?smile1.gif thnx man..smile1.gif cheers!
30/06/2012 10.40 am

can upload all ep Hanrrel Verion or KOR in 720p please... smile1.gif




ADS