User Info

ADS

Torrent’s details
Name The Fearless Hyena (1979) - Jackie Chan [x264]
  You will need to Register or Login to download!
Info Hash f1ec4423af96ab0ed1b06a2b5f7b3db8899d2401
Description


Title: Fearless Hyena


Other Titles: 笑拳怪招, Hsiao chuan yi chao, Xiao chuan yi chao
Year: 1979
Directed by: Jackie Chan
Genre: Martial Arts, Comedy
Runtime: 93 min
Country: Hong Kong
Language: Cantonese | English Audio Commentary by Andrew Staton and Aenie Hayirilioglu (Dual Audio)
Subtitles: English (srt)
Source: tehparadox.com (credits for the rip go to smokey888!!!)

Cast:

Jackie Chan
Peng Kang
James Tien Chun
Dean Shek Tien
Yen Shi Kwan
Lee Kwan
Chan Wai Lau
Cheng Fu Hung
Ma Cheung
Wang Yao
Ricky Cheng Tien Chi
Chiang Chi Ping
Chu Siu Wa
Gam Sai Yuk
Eagle Han Ying
Ho Hing Nam
Kuo Nai Hua
Wong Chi Sang
Wong Kin Mi


Synopsis/Plot:

Jackie Chan is a youngster, living in a remote vllage with his grandfather who teaches him Kong-Fu (naturally). He keeps getting into fights, even though his grandfather warns him not to show their Kong-Fu to others. Jackie, though, is tempted by some thugs he beat up to act as the master of a Kong-Fu school. This school's name apparently spreads far, as an old enemy of Jackie's grandfather (who turns out to be the master of an old gang or something equally obscure) shows up and kills him. Jackie goes on training with the help of another member of the old gang, until he can eventually get revenge. (source: imdb.com)












Coming soon in high quality:

  • Dance of the Drunken Mantis (1979) (Cantonese)
  • Drunken Master (1978) incl. Extras (Cantonese)
  • In the Line of Duty 4 (1989) incl. Extras (Cantonese)
  • Knockabout (1979) incl. Extras (Cantonese)
  • Magnificent Warriors (1987) incl. Extras (Cantonese)
  • Millionaires' Express / Shanghai Express (1986) incl. Extras (Cantonese)
  • Project A (1983) & Project A II (1987) incl. Extras (Cantonese)
  • Snake and Crane Arts of Shaolin (1978) (Mandarin)
  • The Young Master (1980) incl. Extras (Cantonese)

    Coming soon from the hard to find section:

  • Baka yarô! 4 - Yuen Biao segment only (1991) (Japanese)
  • Circus Kid (1994) (Cantonese)
  • Hero of Swallow (1996) (Cantonese)
  • Hunted Hunter/File X Murderer(1997) (Mandarin)
  • Rosa (1986) (Cantonese)
  • Setting Sun/Rakuyo (1992) (Japanese)
  • The Champions (1983) (Cantonese)
  • Tough Beauty and the Sloppy  (1995) (Mandarin)



    Code
    Format                           : Matroska
    File size                        : 1.62 GiB
    Duration                         : 1h 33mn
    Overall bit rate                 : 2 483 Kbps
    Encoded date                     : UTC 2009-04-24 11:54:52
    Writing application              : mkvmerge v2.7.0 ('Do It Again') built on Apr 15 2009 00:27:10
    Writing library                  : libebml v0.7.7 + libmatroska v0.8.1

    Video
    ID                               : 1
    Format                           : AVC
    Format/Info                      : Advanced Video Codec
    Format profile                   : High@L4.1
    Format settings, CABAC           : Yes
    Format settings, ReFrames        : 3 frames
    Codec ID                         : V_MPEG4/ISO/AVC
    Duration                         : 1h 33mn
    Bit rate                         : 2 209 Kbps
    Width                            : 864 pixels
    Height                           : 368 pixels
    Display aspect ratio             : 2.35:1
    Frame rate                       : 25.000 fps
    Color space                      : YUV
    Chroma subsampling               : 4:2:0
    Bit depth                        : 8 bits
    Scan type                        : Progressive
    Bits/(Pixel*Frame)               : 0.278
    Stream size                      : 1.41 GiB (87%)
    Title                            : The Fearless Hyena (1979) -=Ripped by smokey888-tehPARADOX.COM=-
    Writing library                  : x264 core 67 r1139M 1024283
    Encoding settings                : cabac=1 / ref=3 / deblock=1:0:0 / analyse=0x3:0x113 / me=umh / subme=7 / psy_rd=1.0:0.0 / mixed_ref=1 / me_range=12 / chroma_me=1 / trellis=2 / 8x8dct=1 / cqm=0 / deadzone=21,11 / chroma_qp_offset=-2 / threads=3 / nr=0 / decimate=1 / mbaff=0 / bframes=3 / b_pyramid=0 / b_adapt=2 / b_bias=0 / direct=3 / wpredb=1 / keyint=250 / keyint_min=25 / scenecut=40 / rc=2pass / bitrate=2209 / ratetol=1.0 / qcomp=0.50 / qpmin=10 / qpmax=51 / qpstep=4 / cplxblur=20.0 / qblur=0.5 / vbv_maxrate=24000 / vbv_bufsize=24000 / ip_ratio=1.10 / pb_ratio=1.10 / aq=1:1.00
    Language                         : Chinese

    Audio #1
    ID                               : 2
    Format                           : AC-3
    Format/Info                      : Audio Coding 3
    Mode extension                   : CM (complete main)
    Codec ID                         : A_AC3
    Duration                         : 1h 33mn
    Bit rate mode                    : Constant
    Bit rate                         : 192 Kbps
    Channel(s)                       : 2 channels
    Channel positions                : Front: L R
    Sampling rate                    : 48.0 KHz
    Bit depth                        : 16 bits
    Compression mode                 : Lossy
    Stream size                      : 129 MiB (8%)
    Title                            : Cantonese - The Fearless Hyena (1979) -=Ripped by smokey888-tehPARADOX.COM=-
    Language                         : Chinese

    Audio #2
    ID                               : 3
    Format                           : MPEG Audio
    Format version                   : Version 1
    Format profile                   : Layer 3
    Mode                             : Joint stereo
    Mode extension                   : MS Stereo
    Codec ID                         : A_MPEG/L3
    Codec ID/Hint                    : MP3
    Duration                         : 1h 33mn
    Bit rate mode                    : Constant
    Bit rate                         : 80.0 Kbps
    Channel(s)                       : 2 channels
    Sampling rate                    : 32.0 KHz
    Compression mode                 : Lossy
    Stream size                      : 53.6 MiB (3%)
    Title                            : Audio Commentary - The Fearless Hyena (1979) -=Ripped by smokey888-tehPARADOX.COM=-
    Writing library                  : LAME3.98r
    Encoding settings                : -m j -V 4 -q 2 -lowpass 13.5 -b 80
    Language                         : English



  • IMDB
    IMDB Extra
    More.Info
    Category Hong Kong Movie
    Rating
    Size 1.62 GB
    Show/Hide Files
    2 files
    AddDate 12/01/2011
    Uploader ANONYMOUS
    Speed 0 KB/sec
    Down 1072 times
    peers seeds: 23, leechers: 0 = 23 peers
    Who thanked
    Report
    Reseed


    13/03/2014 11.21 am

    Thanks!thumbsup.gif
    17/01/2014 09.58 am

    thank you..
    16/01/2014 09.06 pm

    One of my all time favorite kung-fu classics of all time and one of Jackie's best, thank you!
    16/01/2014 05.52 pm

    thanks
    14/01/2014 03.23 pm

    Thank You !!smile1.gif
    13/01/2014 11.07 am

    thank you!!
    13/01/2014 05.22 am

    thx!
    more more classic jackie movie in MKV smile1.gif
    12/01/2014 09.29 am

    Thanks for sharing
    11/01/2014 07.19 pm

    Thank You! I remember smokey888's rips years ago on tehparadox. I still have a  8)lot of them. Great stuff!
    09/01/2014 09.23 pm

    thanks
    08/01/2014 06.41 pm

    Thanks for the movie.

    Thank you!smile1.gif
    05/01/2014 11.37 pm

    Thank you. smile1.gif
    05/01/2014 09.00 am

    Thank You! grin.gif
    03/03/2013 12.17 am

    My bad! Please ignore my last comment ive only just realised it was in dual audio.doh!
    Cheers again nice copy.grin.gif
    28/02/2013 11.48 pm

    There is no sound only 2 guys discussing the movie scene by scene all the way through.Really dissapointed by this as the actual quality of the movie looks top class.Thanks for the effort anyway.cry.gif
    22/01/2013 09.49 pm

    Thanks a lot
    27/01/2012 04.23 pm

    i love this movie
    14/01/2011 08.16 pm

    thks for this oldie
    13/01/2011 06.37 pm

    hey thanks man. I love JC's old movies. Too bad we will never see the blu ray version of Drunken Master II in its original version format. Screw Mickey Mouse and his co....
    13/01/2011 04.58 pm

    thanx
    13/01/2011 02.00 pm

    wow!!!

    this is simply awesome!!!

    i've watched this movie about 100 times before because i have an old vhs but i've never seen it this way before!!!

    loads of (to me) unseen reeltime.

    thanks again for the upload
    12/01/2011 06.39 pm

    Awesome! Love these old JC movies. smile1.gif
    12/01/2011 04.41 pm

    thank you for this movie
    I have been looking for it for a year
    do you have spiritual kung fu please?
    thank you




    ADS