User Info

ADS

Torrent’s details
Name The Moon that Embraces the Sun 2012 Complete Small
  You will need to Register or Login to download!
Info Hash f1bd4222524d4e5d1e83e2f33f60c4af44558505
Description


http://wiki.d-addicts.com/The_Moon_That_Embraces_the_Sun
http://asianmediawiki.com/The_Moon_Embracing_The_Sun
http://www.hancinema.net/korean_movie_The_Sun_and_the_Moon.php


Details
Title: 해를 품은 달 / Haereul Poomeun Dal
Also known as: The Moon Embracing the Sun / The Sun and the Moon
Genre: Romance, fantasy, period
Episodes: 20
Broadcast network: MBC
Broadcast period: 2012-Jan-04 to TBA
Air time: Wednesday & Thursday 21:55
Language: Korean
Country: South Korea
Subtitles: English (by DarkSmurf CTS)

Synopsis
“The Moon Embracing The Sun” tells a love story between King Lee Hwon and a female shaman named Wol. Wol was born from a noble family and became the crown princess, but she was entrapped and faced execution. Finally, she lived as a shaman.

Cast
Kim Soo Hyun as Lee Hwon
- Yeo Jin Goo as Lee Hwon (young)
Han Ga In as Wol / Heo Yeon Woo
- Kim Yoo Jung as Wol / Heo Yeon Woo (young)
Jung Il Woo as Prince Yang Myung
- Lee Min Ho (1993) as Prince Yang Myung (young)
Song Jae Hee as Heo Yeom
- Si Wan as Heo Yeom (young)
Song Jae Rim as Woon
Kim Min Seo as Yoon Bo Kyung
- Kim So Hyun as Yoon Bo Kyung (young)
Nam Bo Ra as Princess Min Hwa
- Jin Ji Hee as Princess Min Hwa (young)
Yoon Seung Ah as Seol
Ahn Nae Sang as Lee Hwon’s father
Kim Young Ae as Queen Yoon (Lee Hwon’s grandmother)
Jun Mi Sun as Female shaman Jang
Yoon Hee Suk as Hong Kyu Tae


General
Complete name                            : The Moon That Embraces The Sun 01.mp4
Format                                   : MPEG-4
Format profile                           : Base Media
Codec ID                                 : isom
File size                                : 202 MiB
Duration                                 : 1h 11mn
Overall bit rate mode                    : Variable
Overall bit rate                         : 392 Kbps


Video
ID                                       : 1
Format                                   : AVC
Format/Info                              : Advanced Video Codec
Format profile                           : High@L3.1
Format settings, CABAC                   : Yes
Format settings, ReFrames                : 6 frames
Codec ID                                 : avc1
Codec ID/Info                            : Advanced Video Coding
Duration                                 : 1h 11mn
Bit rate                                 : 353 Kbps
Maximum bit rate                         : 1 794 Kbps
Width                                    : 800 pixels
Height                                   : 450 pixels
Display aspect ratio                     : 16:9
Frame rate mode                          : Constant
Frame rate                               : 29.970 fps
Color space                              : YUV
Chroma subsampling                       : 4:2:0
Bit depth                                : 8 bits
Scan type                                : Progressive
Bits/(Pixel*Frame)                       : 0.033
Stream size                              : 181 MiB (90%)
Writing library                          : x264 core 120 r2120 0c7dab9

Audio
ID                                       : 2
Format                                   : AAC
Format/Info                              : Advanced Audio Codec
Format profile                           : HE-AACv2 / HE-AAC / LC
Codec ID                                 : 40
Duration                                 : 1h 11mn
Bit rate mode                            : Variable
Bit rate                                 : 32.0 Kbps
Maximum bit rate                         : 36.9 Kbps
Channel(s)                               : 2 channels / 2 channels / 2 channels
Channel positions                        : Front: L R / Front: L R / Front: L R
Sampling rate                            : 48.0 KHz / 48.0 KHz / 24.0 KHz
Compression mode                         : Lossy
Delay relative to video                  : -1s 333ms
Stream size                              : 16.5 MiB (8%)


IMDB
IMDB Extra
More.Info
Category Korean TV
Rating
Size 3.93 GB
Show/Hide Files
40 files
AddDate 02/06/2012
Uploader ANONYMOUS
Speed 0 KB/sec
Down 1243 times
peers seeds: 14, leechers: 4 = 18 peers
Who thanked
Report
Reseed


28/01/2014 04.17 am

THANK YOU smile1.gif
07/01/2014 01.42 am

grin.gif thanks so much for putting this wonderful show up! I'm from the us and have fallen love with  Korean dramas and want to say thank you very much I wouldn't have been able to see this show if you didn't up this file . props to the uploader & Asia torrents for making it possible
06/09/2013 08.36 am

help pls seedcry.gif
06/05/2013 10.41 pm

Thankssss!!!!!!smile1.gif
09/12/2012 12.14 pm

Thank you very muchconfused.gif
26/11/2012 07.35 am

CAN. NOT. WAIT. TO. SEE. THIS!!!!
THANK U THANK U!!! <3 <3
09/10/2012 07.26 am

Subtitles are included at the whole torrent
28/09/2012 05.49 pm

i am looking for the uploader of this file, because in his details he says that there is a english subtitle i look and search for this subtitle but there is no subtitle about this
27/09/2012 06.50 am

this torrent is working good. the drama was nice..
10/09/2012 08.34 am

it is just me or somehow that subtitles are not in sync? anyone who experienced it? sleep.gif
30/08/2012 02.12 am

Thank you very much! I'll keeping seeding. angel.gif
18/08/2012 08.48 am

WOW! Thank you for this! Been waiting for this to be subbed! <3
12/08/2012 12.12 am

Is the subtitle for this understandable?
09/08/2012 12.14 pm

Can any one confirm if this is ENGLISH HARD SUBBED? thanks!
04/06/2012 02.09 am

Seed Please!
Stuck at 48.8%!!
03/06/2012 12.53 pm

This is a romantic drama. I watched it its truely amazing. Please try to watch. Thank YOU. Waseem Here
02/06/2012 08.00 pm

i like the look of this ill download it and seed it
02/06/2012 05.15 am

Thankssmile1.gif a lot. I am downloading it. Want to see so much.




ADS