User Info

ADS

Torrent’s details
Name Drama Special E84: Come to Me Like a Star (You Came To Me and Become A Star) HDTV H264 720p HANrel
  You will need to Register or Login to download!
Info Hash f15c22130c480326bb730431377352b377ba478d
Description

Details
Title: 나에게로 와서 별이 되었다 / Naegero Waseo Byeoli Dweeossda
Also known as: Came To Me As A Star / You Came To Me and Become A Star / Came to Me and Became A Star
Genre: Melodrama, romance
Format: Drama Special
Episodes: 1
Broadcast network: KBS2
Broadcast date: 2013-Nov-03
Air time: Sunday 23:55

Subtitles:
English subtitle: currently not available for RAW. If you have got english subtitle, please upload it. Thank you.

Synopsis
The story of a man and a woman who live in goshiwon and depicts the love, joys and sorrows of everyday salary-workers' these days who were drawn into work. Kang Suk is a school instructor, while Ha Jin is a toy company employee, both will clank against the wall of reality and unfold melodrama about struggling.

Cast

Kim Ji Suk as Kang Suk
Jung So Min as Ha Jin
Lee Byung Joon as Byung Soo
Yoo So Young as Jung Ah
Nam Kyung Min as Kang Mi
Kim Dong Hee as goshiwon manager

Production Credits
Director: Hwang In Hyuk
Screenwriter: Kim Min Jung




Code
Video
ID                                       : 0
Format                                   : AVC
Format/Info                              : Advanced Video Codec
Format profile                           : High@L3.1
Format settings, CABAC                   : Yes
Format settings, ReFrames                : 2 frames
Codec ID                                 : H264
Duration                                 : 1h 13mn
Bit rate                                 : 2 700 Kbps
Width                                    : 1 280 pixels
Height                                   : 720 pixels
Display aspect ratio                     : 16:9
Frame rate                               : 29.970 fps
Color space                              : YUV
Chroma subsampling                       : 4:2:0
Bit depth                                : 8 bits
Scan type                                : Progressive
Bits/(Pixel*Frame)                       : 0.098
Stream size                              : 1.39 GiB (93%)
Writing library                          : x264 core 128 r2216kMod 198a7ea
Encoding settings                        : cabac=1 / ref=1 / deblock=1:0:0 / analyse=0x3:0x113 / me=hex / subme=4 / psy=1 / fade_compensate=0.00 / psy_rd=0.00:0.00 / mixed_ref=0 / me_range=16 / chroma_me=0 / trellis=1 / 8x8dct=1 / cqm=0 / deadzone=21,11 / fast_pskip=1 / chroma_qp_offset=0 / threads=8 / lookahead_threads=8 / sliced_threads=1 / slices=8 / nr=0 / decimate=1 / interlaced=0 / bluray_compat=0 / constrained_intra=0 / bframes=2 / b_pyramid=0 / b_adapt=1 / b_bias=0 / direct=1 / weightb=1 / open_gop=0 / weightp=2 / keyint=250 / keyint_min=25 / scenecut=40 / intra_refresh=0 / rc=abr / mbtree=0 / bitrate=2700 / ratetol=1.0 / qcomp=0.60 / qpmin=10 / qpmax=51 / qpstep=4 / ip_ratio=1.40 / pb_ratio=1.30 / aq=1:1.00

Audio
ID                                       : 1
Format                                   : MPEG Audio
Format version                           : Version 1
Format profile                           : Layer 3
Mode                                     : Joint stereo
Mode extension                           : MS Stereo
Codec ID                                 : 55
Codec ID/Hint                            : MP3
Duration                                 : 1h 13mn
Bit rate mode                            : Constant
Bit rate                                 : 192 Kbps
Channel count                            : 2 channels
Sampling rate                            : 48.0 KHz
Compression mode                         : Lossy
Delay relative to video                  : 360ms
Stream size                              : 101 MiB (7%)
Alignment                                : Aligned on interleaves
Interleave, duration                     : 33 ms (1.00 video frame)
Interleave, preload duration             : 504 ms

IMDB No IMDB ID been added..
Category Korean TV 720p-1080p
Rating N/A
Size 1.49 GB
Show/Hide Files
1 file
AddDate 28/11/2013
Uploader ANONYMOUS
Speed 0 KB/sec
Down 23 times
peers seeds: 1, leechers: 0 = 1 peers
Who thanked
Report
Reseed


No comments...




ADS