User Info

ADS

Torrent’s details
Name Eyeshield 21 - Episodes 1-145 (Complete) - English Subbed
  You will need to Register or Login to download!
Info Hash f155ce252ecfa3c3046d4c7fc3d7d659de327fbc
Description


Title: Eyeshield 21
Also known as: Eye Shield 21 - Le Yard de vaincre ! (French) | アイシールド21 (Japanese) | 光速蒙面俠21 (Chinese (Taiwan)) | 아이실드 21 (Korean)
Genre: Comedy, Drama, School, Sports
Episodes: 145
Broadcast network: TV Tokyo
Broadcast period:  April 6, 2005 to March 19, 2008
Native Language: Japanese
Subbed Language: English
IMDB Link: http://www.imdb.com/title/tt0996695/

Brief Info
Kobayakawa Sena is a little guy who always get picked on by the bullies in school. Since elementary school, he always play the role of the 'errand boy' to the extent that he has become swift and fast in his movements. Coincidentally, Hiruma Youichi and Kurita Ryukan are looking for a fast running back for their American Football team (Amefuto) and want to put Sena in the team. To hide their new 'star' player from the eyes of other High Schools, Hiruma encases Sena in a Amefuto helmet with a dark visor and name him Eyeshield #21. (Anime News Network)


General
Complete name                    : [Incarnate Torrent]Eyeshield 21 - 001[IT].avi
Format                           : AVI
Format/Info                      : Audio Video Interleave
File size                        : 233 MiB
Duration                         : 22mn 4s
Overall bit rate                 : 1 473 Kbps
Writing application              : VirtualDubMod 1.5.10.1 (build 2439/release)
Writing library                  : VirtualDubMod build 2439/release

Video
ID                               : 0
Format                           : MPEG-4 Visual
Format profile                   : Simple@L3
Format settings, BVOP            : 2
Format settings, QPel            : No
Format settings, GMC             : No warppoints
Format settings, Matrix          : Default (H.263)
Muxing mode                      : Packed bitstream
Codec ID                         : XVID
Codec ID/Hint                    : XviD
Duration                         : 22mn 4s
Bit rate                         : 1 321 Kbps
Width                            : 640 pixels
Height                           : 480 pixels
Display aspect ratio             : 4:3
Frame rate                       : 23.976 fps
Color space                      : YUV
Chroma subsampling               : 4:2:0
Bit depth                        : 8 bits
Scan type                        : Progressive
Compression mode                 : Lossy
Bits/(Pixel*Frame)               : 0.179
Stream size                      : 209 MiB (90%)
Writing library                  : XviD 1.1.0 Beta2 (UTC 2005-04-04)

Audio
ID                               : 1
Format                           : MPEG Audio
Format version                   : Version 1
Format profile                   : Layer 3
Mode                             : Joint stereo
Mode extension                   : MS Stereo
Codec ID                         : 55
Codec ID/Hint                    : MP3
Duration                         : 22mn 4s
Bit rate mode                    : Variable
Bit rate                         : 139 Kbps
Minimum bit rate                 : 32.0 Kbps
Channel(s)                       : 2 channels
Sampling rate                    : 48.0 KHz
Compression mode                 : Lossy
Stream size                      : 21.9 MiB (9%)
Alignment                        : Aligned on interleaves
Interleave, duration             : 24 ms (0.58 video frame)
Interleave, preload duration     : 495 ms
Writing library                  : LAME3.97a
Encoding settings                : -m j -V 4 -q 2 -lowpass 17.5 --vbr-old -b 32
IMDB
IMDB Extra
More.Info
Category Anime TV
Rating
Size 28.91 GB
Show/Hide Files
144 files
AddDate 04/05/2011
Uploader ANONYMOUS
Speed 582.48 KB/sec
Down 179 times
peers seeds: 0, leechers: 0 = 0 peers
Who thanked
Report
Reseed


18/10/2012 01.55 pm

can anyone seed?...thanks...
28/08/2012 04.47 am

hi there, i saw u writing at eyeshield 21 about the bad rip. and yes it is bad2 rip there.
did u know where to find the good rip? episode 87-102 is like eye sore,and after that continue in 113 start with the bad rip again TT.
can u please tell me where is the good rip is? thanks bro.
29/01/2012 07.21 am

thank, very good movie about football, laugh.gif love it laugh.gif
04/05/2011 08.45 am

There are a few bad rips here, that you can find on other sites to make it more complete.

My pack I got at home, have 11 below 165 MB, 3 of them being at 140-150MB, and 8 mkv at 120MB each.
04/05/2011 05.28 am

wowee!  I hope that its fully subbed with at least decent images.  A lot of what I used to find were pulled streams.




ADS