User Info

ADS

Torrent’s details
Name (SB) The Scandalous Warlord (IIB)
  You will need to Register or Login to download!
Info Hash f04a45b67e7c9a87d3283ea67b524274591b3a5c
Description


 Not suitable for young persons and children



AKA: N/A
Year: 1979
Directed: Li Han-Hsiang
Genre: Erotica / Comedy
Runtime 1:28:42
Country: Hong Kong
Language: Mandarin
Subtitles: English srt



---File/video technical info---

<Video>
Format                           : AVI
File size                        : 699 MiB
Overall bit rate                 : 1 102 Kbps
Format                           : MPEG-4 Visual
Codec ID                         : XVID
Bit rate                         : 994 Kbps
Width                            : 640 pixels
Height                           : 272 pixels
Display aspect ratio             : 2.35:1
Frame rate                       : 25.000 fps
Resolution                       : 24 bits
Colorimetry                      : 4:2:0
Scan type                        : Progressive
Bits/(Pixel*Frame)               : 0.228
Stream size                      : 631 MiB (90%)
Writing library                  : XviD 1.0.0 (UTC 2004-05-09)

<Audio>
Format                           : MPEG Audio
Format profile                   : Layer 3
Codec ID/Hint                    : MP3
Bit rate mode                    : Variable
Bit rate                         : 94.7 Kbps
Nominal bit rate                 : 96.0 Kbps
Channel(s)                       : 1 channel
Sampling rate                    : 48.0 KHz
Resolution                       : 16 bits
Stream size                      : 60.0 MiB (9%)
Alignment                        : Aligned on interleaves
Interleave, duration             : 24 ms (0.60 video frame)
Interleave, preload duration     : 503 ms
Writing library                  : LAME3.96a

Cast:
Siu Yam Yam
Chun Wong
Chu Soeng Wan  

Plot:
In this sex comedy the true power behind the country's many warlords are the prostitutes that these men would routinely visit. Therefore, the power in this film lays in the hands of the sassy Shirley Yu and the titillating Shaw Yin-Yin.

Applauded director Li Han-Hsiang was one of few directors that made soft porn acceptable by mainstream audiences, using the thematic device of "sex on a mission" cynicism, suggesting that sex was the ultimate power. In the sex comedy "The Scandalous Warlord", the true power behind the country's many warlords were the prostitutes that these men would routinely visit. Therefore, the power in this film lays in the hands of the sassy Shirley Yu and the titillating Shaw Yin-Yin.


Thanks to arbitrage thumbsup.gif




Please leave a comment for the hard work....it does not hurt whistle.gif
IMDB
IMDB Extra
More.Info
Category HK - Erotica/+18
Rating N/A
Size 699.20 MB
Show/Hide Files
4 files
AddDate 20/08/2009
Uploader ANONYMOUS
Speed 0 KB/sec
Down 363 times
peers seeds: 1, leechers: 0 = 1 peers
Who thanked
Report
Reseed


No comments...




ADS