User Info

ADS

Torrent’s details
Name Marry Him If You Dare E15 HDTV 450p LIMO
  You will need to Register or Login to download!
Info Hash ef981e91433c74e5a2cfbf4367e8bb12bb7eba40
Description

Details

Title: 미래의 선택 / Mi Rae-ui Suntaek
Also known as: Mi Rae's Choice / Future's Choice / The Choice of the Future / The Future Choice
Genre: Romance, comedy, time travel, fantasy
Episodes: TBA
Broadcast network: KBS2
Broadcast period: 2013-Oct-14 to 2013-Dec-??
Air time: Monday & Tuesday 22:00
Subtitles by VIKI and Dramafever will be added later

Synopsis
32 years old for woman is an age which may be little too late to start something new or little too early to give up something. The 'future-self' comes to ‘me’ today and gives advices about life and marriage. The future-self is trying to bring better life by helping her to meet a perfect spouse.--KBS World
This drama will tell the story about a 57 years old woman named Na Mi Rae (Choi Myung Gil) from 2038, a television broadcast writer, travels back in time to meet her 32-year-old self (Yoon Eun Hye) from 2013 with the goal of preventing her marriage to Kim Shin (Lee Dong Gun) and thus send her past self down a different path in life.

Main Cast
Yoon Eun Hye as Na Mi Rae (32)
Choi Myung Gil as Na Mi Rae's future self (57)
Lee Dong Gun as Kim Shin (35)
Jung Yong Hwa as Park Se Joo (28)
Han Chae Ah as Seo Yoo Kyung (28)
People in Broadcasting Station
Oh Jung Se as Na Joo Hyun (35)
Lee Mi Do as Bae Hyun Ah (30)
Ahn Se Ha as Lee Jae Soo (32)
Go Doo Shim as Lee Mi Ran (65)





Code
Video
ID                                       : 0
Format                                   : AVC
Format/Info                              : Advanced Video Codec
Format profile                           : High@L5.1
Format settings, CABAC                   : Yes
Format settings, ReFrames                : 4 frames
Codec ID                                 : H264
Bit rate                                 : 1 500 Kbps
Width                                    : 800 pixels
Height                                   : 450 pixels
Display aspect ratio                     : 16:9
Frame rate mode                          : Variable
Frame rate                               : 29.970 fps
Color space                              : YUV
Chroma subsampling                       : 4:2:0
Bit depth                                : 8 bits
Scan type                                : Progressive
Bits/(Pixel*Frame)                       : 0.139
Stream size                              : 686 MiB (88%)
Writing library                          : x264 core 112

Audio
ID                                       : 1
Format                                   : MPEG Audio
Format version                           : Version 1
Format profile                           : Layer 3
Mode                                     : Joint stereo
Mode extension                           : MS Stereo
Codec ID                                 : 55
Codec ID/Hint                            : MP3
Bit rate mode                            : Constant
Bit rate                                 : 192 Kbps
Channel(s)                               : 2 channels
Sampling rate                            : 48.0 KHz
Compression mode                         : Lossy
Stream size                              : 88.3 MiB (11%)
Alignment                                : Aligned on interleaves
Interleave, duration                     : 24 ms (0.72 video frame)
Writing library                          : LAME3.98.2
Language                                 : Korean

IMDB No IMDB ID been added..
Category Korean TV
Rating N/A
Size 771.20 MB
Show/Hide Files
1 file
AddDate 02/12/2013
Uploader ANONYMOUS
Speed 0 KB/sec
Down 203 times
peers seeds: 0, leechers: 0 = 0 peers
Who thanked
Report
Reseed


15/12/2013 01.53 pm

Thank you so much.grin.gifgrin.gifgrin.gif
03/12/2013 11.46 am

is this with eng subs?




ADS