User Info

ADS

Torrent’s details
Name Running Man E151 HDTV 720p KOR
  You will need to Register or Login to download!
Info Hash ed6bce70777908759a0dd4b3e450a95357d35c22
Description


Plot/Synopsis:
Running Man (Korean: 런닝맨) is a South Korean variety show; a part of SBS's Good Sunday lineup, along with K-pop Star (K팝 스타). It was first aired on July 11, 2010. This show is classified as an "urban action variety"; a never-before-seen new genre of variety shows. The MCs and guests complete missions in a landmark to win the race. It has garnered attention as being the come-back program for Yu Jae-suk, the main MC of the program, after leaving Good Sunday's Family Outing in February 2010.

Subtitles by Dramafever will be added later.
There will be a 24hr delay for each person that annoys me for subtitles.





Code
Video
ID                             : 0
Format                         : AVC
Format/Info                    : Advanced Video Codec
Format profile                 : High@L5.1
Format settings, CABAC         : Yes
Format settings, ReFrames      : 4 frames
Codec ID                       : H264
Duration                       : 1h 17mn
Bit rate                       : 3 000 Kbps
Width                          : 1 280 pixels
Height                         : 720 pixels
Display aspect ratio           : 16:9
Frame rate mode                : Variable
Frame rate                     : 29.970 fps
Color space                    : YUV
Chroma subsampling             : 4:2:0
Bit depth                      : 8 bits
Scan type                      : Progressive
Bits/(Pixel*Frame)             : 0.109
Stream size                    : 1.61 GiB (94%)
Writing library                : x264 core 112
Encoding settings              : cabac=1 / ref=3 / deblock=1:-1:-1 / analyse=0x3:0x113 / me=hex / subme=6 / psy=1 / psy_rd=1.00:1.00 / mixed_ref=1 / me_range=16 / chroma_me=1 / trellis=1 / 8x8dct=1 / cqm=0 / deadzone=21,11 / fast_pskip=0 / chroma_qp_offset=-4 / threads=12 / sliced_threads=0 / nr=0 / decimate=1 / interlaced=0 / constrained_intra=0 / bframes=3 / b_pyramid=2 / b_adapt=1 / b_bias=1 / direct=3 / weightb=1 / open_gop=0 / weightp=2 / keyint=299 / keyint_min=25 / scenecut=1 / intra_refresh=0 / rc_lookahead=40 / rc=abr / mbtree=1 / bitrate=3000 / ratetol=1.0 / qcomp=0.60 / qpmin=10 / qpmax=51 / qpstep=4 / ip_ratio=1.40 / aq=1:1.00

Audio
ID                             : 1
Format                         : MPEG Audio
Format version                 : Version 1
Format profile                 : Layer 3
Mode                           : Joint stereo
Mode extension                 : MS Stereo
Codec ID                       : 55
Codec ID/Hint                  : MP3
Duration                       : 1h 17mn
Bit rate mode                  : Constant
Bit rate                       : 192 Kbps
Channel(s)                     : 2 channels
Sampling rate                  : 48.0 KHz
Compression mode               : Lossy
Stream size                    : 106 MiB (6%)
Alignment                      : Split accross interleaves
Interleave, duration           : 33 ms (1.00 video frame)
Interleave, preload duration   : 500 ms
Writing library                : LAME3.98.2


IMDB No IMDB ID been added..
Category Korean TV 720p-1080p
Rating
Size 2.12 GB
Show/Hide Files
1 file
AddDate 23/06/2013
Uploader ANONYMOUS
Speed 0 KB/sec
Down 2293 times
peers seeds: 18, leechers: 0 = 18 peers
Who thanked
Report
Reseed


04/07/2013 02.11 am

thanxxxx...
03/07/2013 01.41 am

Cool upload buddy! Keep it up! strongbench.gif
27/06/2013 06.23 am

how come the end of this ep showing 2 diff ep?
25/06/2013 02.49 am

About the Avengers Part 2. I thought the superheroes abilities were not thought out very well. It was all over the place. The powers that were in the soccer and baseball episodes were brilliant. Those were really fun to watch. It's hard to put it into reality and be awesome.
24/06/2013 10.34 pm

Thank you sooo much grin.gif
24/06/2013 09.43 pm

Thanks! Much appreciated. tongue.gif
24/06/2013 04.42 pm

They're probably rethinking the avengers concept, it was a good idea but it was kind of poorly done and it seemed rushed. It has a lot of potential and it could be funny like the soccer episode but I think last ep was one of the lowest rating.
24/06/2013 01.33 pm

ThankS thumbsup.gif
24/06/2013 02.28 am

Man, give us the 2nd part of the avengers
23/06/2013 05.00 pm

Komo KOB!
23/06/2013 02.54 pm

what about To be continue of ep 150...? I thought this is the next...
23/06/2013 01.58 pm

Thank you again..can never find kor versions, in the end have to come back to KOB. And whats with HAHAs hair eh? very funneh smile1.gif
23/06/2013 12.30 pm

Yessssss new RM
23/06/2013 12.14 pm

Han Hyo-joo ?
23/06/2013 12.13 pm

i lovveee you KOB laugh.gif




ADS