User Info

ADS

Torrent’s details
Name Attention Please! [Kioku] complete+SP hawaii + SP sydney [hardsub]
  You will need to Register or Login to download!
Info Hash eb88f687bf7cef1263c0a0daccfcf16581868ef5
Description

Losing her mother at a young age, Misaki Yoko (Ueto Aya) was raised amongst three brothers. Yoko is a slightly boyish girl who is bullheaded and hates dishonesty. Ever since she was young, she enjoyed the company of boys over girls. She starts a band with four of her boy friends and becomes the lead singer. Then one day, one of the members of the band, Tsukasa, gets a job at a bank in Tokyo. Due to Tsukasa leaving town, the band breaks up and though Yoko finds herself lonely, she puts on a strong act in front of Tsukasa. She can't tell Tsukasa how she truly feels for him. On the day Tsukasa leaves for Tokyo, Yoko goes along with the band members to the airport to see him off. The guys get excited when they see some cabin crew ladies and Yoko has no idea why. She reminds them that even she can wear a uniform, but the guys only make fun of her. That's when Tsukasa tells Yoko he wonders what she'd look like dressed in uniform. This is when Yoko decides she wants to work as a Cabin Attendant


Also Known As: Atenshon puriizu
Telecast: 2006-04-18 to 2006-06-27 Fuji TV
Directed: Sato Yuichi
Genre: Comedy/Drama
Runtime: 45min x 11 eps
Country: Japan
Language: Japanese
Subtitles: English HardSubs
IMDB:http://imdb.com/title/tt0765424/
Cast: Ueto Aya, Nishikido Ryou, Maya Miki[/center][/left]
Losing her mother at a young age, Misaki Yoko (Ueto Aya) was raised amongst three brothers. Yoko is a slightly boyish girl who is bullheaded and hates dishonesty. Ever since she was young, she enjoyed the company of boys over girls. She starts a band with four of her boy friends and becomes the lead singer. Then one day, one of the members of the band, Tsukasa, gets a job at a bank in Tokyo. Due to Tsukasa leaving town, the band breaks up and though Yoko finds herself lonely, she puts on a strong act in front of Tsukasa. She can't tell Tsukasa how she truly feels for him. On the day Tsukasa leaves for Tokyo, Yoko goes along with the band members to the airport to see him off. The guys get excited when they see some cabin crew ladies and Yoko has no idea why. She reminds them that even she can wear a uniform, but the guys only make fun of her. That's when Tsukasa tells Yoko he wonders what she'd look like dressed in uniform. This is when Yoko decides she wants to work as a Cabin Attendant


Also Known As: Atenshon puriizu
Telecast: 2006-04-18 to 2006-06-27 Fuji TV
Directed: Sato Yuichi
Genre: Comedy/Drama
Runtime: 45min x 11 eps
Country: Japan
Language: Japanese
Subtitles: English HardSubs
IMDB:http://imdb.com/title/tt0765424/
Cast: Ueto Aya, Nishikido Ryou, Maya Miki


Spoiler:show

Format                         : AVI
Format/Info                    : Audio Video Interleave
File size                      : 453 MiB
Duration                       : 57mn 49s
Overall bit rate               : 1 095 Kbps
Writing library                : VirtualDub build 18160/release

Video
ID                             : 0
Format                         : MPEG-4 Visual
Format profile                 : Advanced Simple@L5
Format settings, BVOP          : 2
Format settings, QPel          : No
Format settings, GMC           : No warppoints
Format settings, Matrix        : Default (H.263)
Muxing mode                    : Packed bitstream
Codec ID                       : XVID
Codec ID/Hint                  : XviD
Duration                       : 57mn 49s
Bit rate                       : 955 Kbps
Width                          : 704 pixels
Height                         : 396 pixels
Display aspect ratio           : 16:9
Frame rate                     : 29.970 fps
Color space                    : YUV
Chroma subsampling             : 4:2:0
Bit depth                      : 8 bits
Scan type                      : Progressive
Compression mode               : Lossy
Bits/(Pixel*Frame)             : 0.114
Stream size                    : 395 MiB (87%)
Writing library                : XviD 1.1.0 (UTC 2005-11-22)

Audio
ID                             : 1
Format                         : MPEG Audio
Format version                 : Version 1
Format profile                 : Layer 3
Mode                           : Joint stereo
Mode extension                 : MS Stereo
Codec ID                       : 55
Codec ID/Hint                  : MP3
Duration                       : 57mn 49s
Bit rate mode                  : Constant
Bit rate                       : 128 Kbps
Channel(s)                     : 2 channels
Sampling rate                  : 48.0 KHz
Compression mode               : Lossy
Stream size                    : 52.9 MiB (12%)
Alignment                      : Split accross interleaves
Interleave, duration           : 33 ms (1.00 video frame)
Interleave, preload duration   : 500 ms
Writing library                : LAME3.96.1


IMDB
IMDB Extra
More.Info
Category Japanese TV
Rating
Size 5.27 GB
Show/Hide Files
13 files
AddDate 17/03/2013
Uploader ANONYMOUS
Speed 0 KB/sec
Down 219 times
peers seeds: 3, leechers: 0 = 3 peers
Who thanked
Report
Reseed


11/05/2013 03.11 pm

Will seed if needed grin.gif I've got this ^^ Just let me know
13/04/2013 05.34 am

Thanks I've been looking for the Sydney one! I loved this actress ever since Azumi and she's so funny here! I love this show! Thanks!




ADS