User Info

ADS

Torrent’s details
Name Young Mother 2013.HDRip.720p.H264.BSY[No Subs]
  You will need to Register or Login to download!
Info Hash eb2977118e7e0d5ec2dbdb8b4ee9f3a290f74951
Description
Audio Sound: Korean
Subtitle : None








Directed by Kong Ja-kwan (공자관)
Screenplay by Joo Do-san (주도산), Kong Ja-kwan (공자관)
•Erotic •Melodrama •Romance
83min | Release date in South Korea : 2013/07/31
Cast : Lee Eun-mi-I(이은미), Joo In-cheol(주인철), Joo In-cheol(주인철), Yeon Hee(연희)



In the period of nineteen-year-old lust, repeater Jin-goo enjoys an erotic moment to himself while thinking about his pretty English tutor. Then one day, he is caught in the middle of an embarrassing moment and become awkward with her. However, this becomes an opportunity and she starts teaching him sex. Their relationship becomes uncontrollable romance. However, she quits the tutoring and the relationship to get married.

Time goes and Jin-goo is a grown up. He's used to thoughtless sex. However, his partner of benefit gets pregnant so he meets his future-mother-in-law to talk about marriage. However, she's so beautiful and sexy. He moves in with the in-laws but soon breaks out of the marriage due to his wife's fling. The mother-in-law doesn't know how to make it up to him for what her daughter has done. Jin-goo suggests something dangerous...

















Code
Complete name                            : Young Mother 2013.HDRip.720p.H264.BSY.avi
Format                                   : AVI
Format/Info                              : Audio Video Interleave
Format profile                           : OpenDML
File size                                : 5.98 GiB
Duration                                 : 1h 23mn
Overall bit rate                         : 10.2 Mbps

Video
ID                                       : 0
Format                                   : AVC
Format/Info                              : Advanced Video Codec
Format profile                           : Baseline@L4.1
Format settings, CABAC                   : No
Format settings, ReFrames                : 1 frame
Codec ID                                 : H264
Duration                                 : 1h 23mn
Bit rate                                 : 10.1 Mbps
Width                                    : 1 280 pixels
Height                                   : 720 pixels
Display aspect ratio                     : 16:9
Frame rate mode                          : Variable
Frame rate                               : 30.000 fps
Color space                              : YUV
Chroma subsampling                       : 4:2:0
Bit depth                                : 8 bits
Scan type                                : Progressive
Bits/(Pixel*Frame)                       : 0.365
Stream size                              : 5.90 GiB (99%)

Audio
ID                                       : 1
Format                                   : MPEG Audio
Format version                           : Version 1
Format profile                           : Layer 3
Mode                                     : Joint stereo
Mode extension                           : MS Stereo
Codec ID                                 : 55
Codec ID/Hint                            : MP3
Duration                                 : 1h 23mn
Bit rate mode                            : Constant
Bit rate                                 : 128 Kbps
Channel(s)                               : 2 channels
Sampling rate                            : 44.1 KHz
Compression mode                         : Lossy
Stream size                              : 76.6 MiB (1%)
Alignment                                : Aligned on interleaves
Interleave, duration                     : 26 ms (0.78 video frame)
Writing library                          : LAME3.98.2



IMDB No IMDB ID been added..
Category Korean Movie 720p-1080p
Rating N/A
Size 5.98 GB
Show/Hide Files
1 file
AddDate 05/08/2013
Uploader ANONYMOUS
Speed 0 KB/sec
Down 613 times
peers seeds: 4, leechers: 0 = 4 peers
Who thanked
Report
Reseed


16/03/2014 06.33 pm

any news on when subs are coming ??????????
24/11/2013 05.16 pm

is there anyone that will sub this movie!!!!
14/10/2013 03.53 pm

please subs
04/10/2013 09.20 am


Quote:
where's the link?

to download:-

I assumed you mean link

(a) get an approved torrent client.
http://www.asiatorrents.me/forums/viewtopic.php?f=7&t=49
(b) Install the torrent client.
© start the torrent client
(d)Download the torrent file and save it.
See the top of this page .Just below the name.
See Torrent Download .Click the red downward pointing arrow.
(e) Click on the torrent file . The Torrent client should open it for downloading.
04/10/2013 09.12 am

where's the link?
17/09/2013 08.38 pm

please subs. there are some parts I want to now what they are saying
11/08/2013 03.55 pm

These are the sort of movies where subs are not needed tongue.gif
11/08/2013 02.58 pm

tnkssmile1.gif
10/08/2013 11.20 am

lots of sex in this. pity there are no subs.
10/08/2013 04.43 am

is this movie any good? synopsis seems so so. if the nude scenes are good, will consider to grab it
07/08/2013 01.52 am


is there a word for MILF in Korean?
06/08/2013 12.31 pm

nice movie dude can i get english subtitle pls angel.gif
05/08/2013 07.10 am

Love that censor thing. Epic. Thanks!
05/08/2013 07.02 am

That red censor bar.
05/08/2013 05.21 am

Hmmm....nice job on censoring the sixth screenCap




ADS