User Info

ADS

Torrent’s details
Name Office Of Practical Jokes E05 (2013) TV Rip [Cantonese]
  You will need to Register or Login to download!
Info Hash eaabdb449bfe281e56bac4031e96f6de06b78f98
Description


Host: Johnson Lee
Genre: TVB Variety (Comedy Prank Show)

Also Known As: 玩嘢王
Country: Hong Kong
Duration: 44 mins
Language: Cantonese
Subtitles: Chinese / No English Subs

Release Date: 2013.05-18 (Episode 05)


Code
General
Format                                   : RealMedia
File size                                : 354 MiB
Duration                                 : 44mn 33s
Overall bit rate                         : 1 096 Kbps

Video
ID                                       : 1
Format                                   : RealVideo 4
Codec ID                                 : RV40
Codec ID/Info                            : Based on AVC (H.264), Real Player 9
Duration                                 : 44mn 33s
Bit rate                                 : 968 Kbps
Width                                    : 720 pixels
Height                                   : 408 pixels
Display aspect ratio                     : 16:9
Frame rate                               : 25.000 fps
Bits/(Pixel*Frame)                       : 0.132
Stream size                              : 308 MiB (87%)

Audio
ID                                       : 0
Format                                   : AAC
Format/Info                              : Advanced Audio Codec
Format profile                           : LC
Codec ID                                 : raac
Codec ID/Info                            : Real Player 9
Duration                                 : 44mn 33s
Bit rate                                 : 128 Kbps
Channel(s)                               : 2 channels
Sampling rate                            : 44.1 KHz
Bit depth                                : 16 bits
Compression mode                         : Lossy
Stream size                              : 40.8 MiB (12%)



IMDB No IMDB ID been added..
Category Hong Kong TV
Rating N/A
Size 309.52 MB
Show/Hide Files
1 file
AddDate 18/05/2013
Uploader ANONYMOUS
Speed 0 KB/sec
Down 133 times
peers seeds: 2, leechers: 0 = 2 peers
Who thanked
Report
Reseed


No comments...




ADS