User Info

ADS

Torrent’s details
Name Sex Goddess (R18+)
  You will need to Register or Login to download!
Info Hash ea036c4625be998965110cdbe65f3f1a1d5de67a
Description Warning : This movie contains explicit and strong sexual content. Not suitable for viewers under age 18
Sex Goddess (R18+)

Genre                            : Adult Pv
Distributor                      : Viva Video Inc.
Year                             : 2003
Country                          : Philippines
Source                           : DVD5
Audio Language                   : Filipino
Subtitles                        : None
Ripper                           : MasterMclovin

General
Format                           : AVI
Format/Info                      : Audio Video Interleave
File size                        : 701 MiB
Duration                         : 44mn 20s
Overall bit rate                 : 2 211 Kbps
Writing application              : VirtualDubMod 1.5.10.2 (build 2542/release)
Writing library                  : VirtualDubMod build 2542/release

Video
ID                               : 0
Format                           : MPEG-4 Visual
Format profile                   : Advanced Simple@L5
Format settings, BVOP            : 1
Format settings, QPel            : No
Format settings, GMC             : No warppoints
Format settings, Matrix          : Default (H.263)
Muxing mode                      : Packed bitstream
Codec ID                         : XVID
Codec ID/Hint                    : XviD
Duration                         : 44mn 20s
Bit rate                         : 2 071 Kbps
Width                            : 640 pixels
Height                           : 480 pixels
Display aspect ratio             : 4:3
Frame rate                       : 29.970 fps
Color space                      : YUV
Chroma subsampling               : 4:2:0
Bit depth                        : 8 bits
Scan type                        : Progressive
Compression mode                 : Lossy
Bits/(Pixel*Frame)               : 0.225
Stream size                      : 657 MiB (94%)
Writing library                  : XviD 1.2.1 (UTC 2008-12-04)

Audio
ID                               : 1
Format                           : MPEG Audio
Format version                   : Version 1
Format profile                   : Layer 3
Mode                             : Joint stereo
Codec ID                         : 55
Codec ID/Hint                    : MP3
Duration                         : 44mn 20s
Bit rate mode                    : Constant
Bit rate                         : 128 Kbps
Channel(s)                       : 2 channels
Sampling rate                    : 48.0 KHz
Compression mode                 : Lossy
Stream size                      : 40.6 MiB (6%)
Alignment                        : Split accross interleaves
Interleave, duration             : 33 ms (1.00 video frame)
Interleave, preload duration     : 500 ms


Maui Taylor...the ultimate Hot Babe wants to get intimate with you. Let the woman-child set your passions ablaze in ten sweltering scenes. Watch Maui Taylor turn herself into enchanting goddesses mere mortals cannot refuse.


Izanami No Mikoto - The Goddess of Creation
Can Nu - The Lady Silkworm
Hera - The Virgin Goddess
Artemis - Goddess of Animals
Harpies - Goddess of Wings
Oceana - Goddess of the Ocean
Gaia - Greek Goddess of Mother Earth
Athena - The Warrior Goddess
Medussa - The Serpent Goddess
Venus - Goddess of Love and Beauty

Stars: Muai Taylor
IMDB
IMDB Extra
More.Info
Category Philippines - Erotic/+18
Rating
Size 701.04 MB
Show/Hide Files
1 file
AddDate 14/07/2011
Uploader ANONYMOUS
Speed 0 KB/sec
Down 5163 times
peers seeds: 15, leechers: 1 = 16 peers
Who thanked
Report
Reseed


16/08/2014 01.54 pm

thank you for sharing!
08/05/2014 12.28 am

everybody like this movie grin.gif
28/05/2012 11.57 pm

boring!!! like watching a live swimsuit mag...blah. Screen shots say it all! laugh.gif
21/03/2012 12.59 pm

wheeew thanks
23/12/2011 05.03 pm

Salamat!
01/09/2011 09.34 am

Thank you MasterMclovin
19/07/2011 01.46 am

Thanks for this share
17/07/2011 01.22 am

I can't download only this movie .. Why.. ???
noexpression.gifangel.gifcry.gif
16/07/2011 10.33 am

she's damn hot, even though there's no story from this movie laugh.gif
15/07/2011 06.00 am

"Woman-child"?
15/07/2011 02.58 am

Everything that has an 18-rating here gets so popular so fast, why dont you guys just download some porn instead laugh.gif
14/07/2011 10.39 pm

its doesnt downloading to me <.<
14/07/2011 08.38 pm

Thanks!
14/07/2011 08.13 pm

@milkywayofjapan Muai Taylor is just hot in this movie but if you're looking for a good story telling movie then this would not make sense. @ahbear the problem is dvd source there are only few release group that do filipino movies it's hard to find them and they tend to put watermarks (group signature) in their release i only encode when i find decent dvd from torrenting obviously and will be uploaded here.
14/07/2011 07.30 pm

i wud download it as soon as i heard the title. laugh.gif
14/07/2011 07.21 pm

why did so many people download it ? is it any good?
i m just curious tongue.gif
14/07/2011 04.47 pm

So hot! Thanks much.
14/07/2011 03.56 pm

fantastic! can we have more films from maui taylor?
14/07/2011 02.20 pm

Thank you MasterMclovin smile1.gif




ADS