User Info

ADS

Torrent’s details
Name I Miss You (2012)-720p [DTS] [Thai/Cantonese dub]
  You will need to Register or Login to download!
Info Hash e8d00c19e2e8878b994296e894caddc5db457fe2
Description





Genre: Horror
Director: Arayangkoon Monthon
Cast: Jesdaporn Pholdee, Apinya Sakuljaroensuk, Natthaweeranuch Thongmee
Language: Thai, Cantonese
Subtitles: English, Chinese
Country: Thailand
Release Date: 26/10/2012



Plot/Synopsis:
Love transcends life and death in the Thai horror romance blockbuster I Miss U. Inspired by an urban legend that piqued the curiosity of many netizens, director Monthon Arayangkoon (The Victim) turned it into a tale of a love triangle that is as much heart-wrenching as it is bone-chilling in the best tradition of Thai supernatural movies. Dr. Thana (Jesdaporn Pholdee, The Eye 2) is devastated by his fiancée Nok's (Natthaweeranuch Thongmee, Shutter) untimely death in a traffic accident that happened before their wedding. Long after the tragedy, he finally finds relief from his grief in young co-worker Bee (Apinya Sakuljaroensuk, 4 Bia) as they both feel growing affections for each other. But Nok's spirit, still lingering around Thana, just wouldn't let any woman near him...



Media Info:
Format                           : Matroska
Format version                   : Version 2
File size                        : 7.24 GiB
Duration                         : 1h 55mn
Overall bit rate                 : 9 011 Kbps
Encoded date                     : UTC 2012-11-12 09:11:56
Writing application              : mkvmerge v5.8.0 ('No Sleep / Pillow') built on Sep  2 2012 15:37:04
Writing library                  : libebml v1.2.3 + libmatroska v1.3.0

Video
ID                               : 1
Format                           : AVC
Format/Info                      : Advanced Video Codec
Format profile                   : High@L4.1
Format settings, CABAC           : Yes
Format settings, ReFrames        : 8 frames
Muxing mode                      : Header stripping
Codec ID                         : V_MPEG4/ISO/AVC
Duration                         : 1h 55mn
Bit rate                         : 6 000 Kbps
Width                            : 1 280 pixels
Height                           : 560 pixels
Display aspect ratio             : 2.25:1
Frame rate mode                  : Variable
Frame rate                       : 24.000 fps
Color space                      : YUV
Chroma subsampling               : 4:2:0
Bit depth                        : 8 bits
Scan type                        : Progressive
Bits/(Pixel*Frame)               : 0.349
Stream size                      : 4.67 GiB (64%)
Writing library                  : x264 core 120

Audio #1
ID                               : 2
Format                           : DTS
Format/Info                      : Digital Theater Systems
Muxing mode                      : Header stripping
Codec ID                         : A_DTS
Duration                         : 1h 55mn
Bit rate mode                    : Constant
Bit rate                         : 1 510 Kbps
Channel(s)                       : 6 channels
Channel positions                : Front: L C R, Side: L R, LFE
Sampling rate                    : 48.0 KHz
Bit depth                        : 16 bits
Compression mode                 : Lossy
Stream size                      : 1.21 GiB (17%)

Audio #2
ID                               : 3
Format                           : DTS
Format/Info                      : Digital Theater Systems
Muxing mode                      : Header stripping
Codec ID                         : A_DTS
Duration                         : 1h 55mn
Bit rate mode                    : Constant
Bit rate                         : 1 510 Kbps
Channel(s)                       : 6 channels
Channel positions                : Front: L C R, Side: L R, LFE
Sampling rate                    : 48.0 KHz
Bit depth                        : 16 bits
Compression mode                 : Lossy
Stream size                      : 1.21 GiB (17%)

Text #1
ID                               : 4
Format                           : VobSub
Muxing mode                      : zlib
Codec ID                         : S_VOBSUB
Codec ID/Info                    : The same subtitle format used on DVDs
Title                            : CHT
Language                         : Chinese

Text #2
ID                               : 5
Format                           : VobSub
Muxing mode                      : zlib
Codec ID                         : S_VOBSUB
Codec ID/Info                    : The same subtitle format used on DVDs
Title                            : ENG
Language                         : English



Screen shots:
IMDB No IMDB ID been added..
Category Thai Movie 720p-1080p
Rating
Size 7.24 GB
Show/Hide Files
4 files
AddDate 15/11/2012
Uploader ANONYMOUS
Speed 2 MB/sec
Down 121 times
peers seeds: 4, leechers: 0 = 4 peers
Who thanked
Report
Reseed


No comments...




ADS