User Info

ADS

Torrent’s details
Name Rosa (1986) - Yuen Biao [x264]
  You will need to Register or Login to download!
Info Hash e7548b79a86f4bf4b4eabf7d915e568fd665708d
Description

Title: Rosa


Other Titles: 神勇雙響炮續集, Shen yong shuang xiang pao xu ji
Year: 1986
Directed by: Joe Cheung Tung Cho
Genre: Action, Martial Arts, Crime, Comdey
Runtime: 92 min
Country: Hong Kong
Language: Cantonese | Mandarin (Dual Audio)
Subtitles: English (embedded in file, removable)
More info at: Imdb & Hkcinemagic


Cast:

Yuen Biao
Lowell Lo Koon Ting
Kara Hui Ying Hung
Luk Siu Fan
Paul Chun Pui
James Tien Chun
Dick Wei
Chung Fat
Baan Yun Sang
Tai Bo
Chan Chuen
Peter Chan Lung
Cheung Wing Cheung
Billy Ching Sau Yat

Synopsis/Plot:

This story focuses on two "over zealous" policemen. The movie begins with an academic exhibition, due to Yuen Biao "neurotic" behaviour, both Yuen and his supervisor, Captain Mean, are heavily penalized. Lowell Lo is in the midst of a car chase that gets himself involved in a heated argument with police. As though the protagonists are destined to be partners, both of them are transferred to the C.I.D. Captain Mean assigns them a difficult case - "The case of the missing informer". The last person known to have contacted this informer is his girlfriend Lok Siu Fan whom is known as Rosa. During the investigation Yuen Biao falls in love with Lo's sister Wai Ying Hung and Lo becomes attracted to Lo Siu Fan. Will they eventually unravel the mystery behind the case? (Source: Joy Sales)









Coming soon in high quality:

  • Dance of the Drunken Mantis (1979) (Cantonese)
  • Iron Monkey 2 (1996) (Cantonese)
  • Shanghai, Shanghai (1990) (Cantonese)
  • Snake and Crane Arts of Shaolin (1978) (Mandarin)

    Coming soon from the hard to find section:

  • Circus Kid (1994) (Cantonese)
  • Hunted Hunter/File X Murderer (1997)(Cantonese/Mandarin)
  • No Problem 2 (2002) (Cantonese/Japanese)
  • Setting Sun/Rakuyo (1992) (Japanese)
  • The Champions (1983) (Cantonese)
  • Tough Beauty and the Sloppy  (1995) (Mandarin)


    Code
    Format                           : Matroska
    File size                        : 755 MiB
    Duration                         : 1h 32mn
    Overall bit rate                 : 1 144 Kbps
    Writing application              : HandBrake 0.9.5
    Writing library                  : libmkv 0.6.4.1

    Video
    ID                               : 1
    Format                           : AVC
    Format/Info                      : Advanced Video Codec
    Format profile                   : Main@L3.0
    Format settings, CABAC           : Yes
    Format settings, ReFrames        : 4 frames
    Codec ID                         : V_MPEG4/ISO/AVC
    Duration                         : 1h 32mn
    Bit rate                         : 801 Kbps
    Width                            : 640 pixels
    Height                           : 352 pixels
    Display aspect ratio             : 16:9
    Frame rate mode                  : Variable
    Frame rate                       : 23.976 fps
    Color space                      : YUV
    Chroma subsampling               : 4:2:0
    Bit depth                        : 8 bits
    Scan type                        : Progressive
    Bits/(Pixel*Frame)               : 0.148
    Stream size                      : 529 MiB (70%)
    Writing library                  : x264 core 112
    Encoding settings                : cabac=1 / ref=2 / deblock=1:0:0 / analyse=0x1:0x111 / me=hex / subme=6 / psy=1 / psy_rd=1.00:0.00 / mixed_ref=0 / me_range=16 / chroma_me=1 / trellis=0 / 8x8dct=0 / cqm=0 / deadzone=21,11 / fast_pskip=1 / chroma_qp_offset=-2 / threads=6 / sliced_threads=0 / nr=0 / decimate=1 / interlaced=0 / constrained_intra=0 / bframes=2 / b_pyramid=2 / b_adapt=1 / b_bias=0 / direct=1 / weightb=0 / open_gop=0 / weightp=2 / keyint=240 / keyint_min=23 / scenecut=40 / intra_refresh=0 / rc_lookahead=40 / rc=crf / mbtree=1 / crf=19.0 / qcomp=0.60 / qpmin=3 / qpmax=51 / qpstep=4 / ip_ratio=1.40 / aq=1:1.00
    Language                         : English
    Color primaries                  : BT.601-6 525, BT.1358 525, BT.1700 NTSC, SMPTE 170M
    Transfer characteristics         : BT.709-5, BT.1361
    Matrix coefficients              : BT.601-6 525, BT.1358 525, BT.1700 NTSC, SMPTE 170M

    Audio #1
    ID                               : 2
    Format                           : AC-3
    Format/Info                      : Audio Coding 3
    Mode extension                   : CM (complete main)
    Codec ID                         : A_AC3
    Duration                         : 1h 32mn
    Bit rate mode                    : Constant
    Bit rate                         : 160 Kbps
    Channel(s)                       : 2 channels
    Channel positions                : Front: L R
    Sampling rate                    : 48.0 KHz
    Bit depth                        : 16 bits
    Compression mode                 : Lossy
    Stream size                      : 106 MiB (14%)
    Language                         : Chinese

    Audio #2
    ID                               : 3
    Format                           : AC-3
    Format/Info                      : Audio Coding 3
    Mode extension                   : CM (complete main)
    Codec ID                         : A_AC3
    Duration                         : 1h 32mn
    Bit rate mode                    : Constant
    Bit rate                         : 160 Kbps
    Channel(s)                       : 2 channels
    Channel positions                : Front: L R
    Sampling rate                    : 48.0 KHz
    Bit depth                        : 16 bits
    Compression mode                 : Lossy
    Stream size                      : 106 MiB (14%)
    Language                         : Chinese

    Text
    ID                               : 4
    Format                           : UTF-8
    Codec ID                         : S_TEXT/UTF8
    Codec ID/Info                    : UTF-8 Plain Text
    Language                         : English

  • IMDB
    IMDB Extra
    More.Info
    Category Hong Kong Movie
    Rating
    Size 755.15 MB
    Show/Hide Files
    1 file
    AddDate 30/01/2011
    Uploader ANONYMOUS
    Speed 0 KB/sec
    Down 287 times
    peers seeds: 1, leechers: 0 = 1 peers
    Who thanked
    Report
    Reseed


    07/07/2011 03.54 am

    thanks a lot very nice movie
    27/04/2011 08.57 pm

    thank ugrin.gifgrin.gifgrin.gifsmile1.gif
    01/02/2011 05.03 am

    yes using the kids computer which is in chinese chose unicode for subtitles when that failed used big5 failed again funny because I just converted a Taiwan tv show RMVB to AVI and subs were fine thanks
    31/01/2011 10.07 pm

    Are you converting the mkvs with a conversion program? The subs might not be displaying right if you haven't got chinese characters enabled in windows.
    31/01/2011 03.58 pm

    sorry it was a "general" mkv file question  that  I was having trouble with, normally just add english subs for canto challenged (me) family members to watch the old movies together. Trying to convert the old Rocky movies with chinese subs for movie night thanks
    31/01/2011 03.15 pm

    That's interesting. Where did you find Chinese subs? I only added English subs for this movie ...
    31/01/2011 02.40 pm

    when I convert the mkv file the chinese subs turn into squares and dashes I need the chinese subs so any help would be appreciated thanks
    31/01/2011 09.49 am

    thank u!...nice contribution !..




    ADS