User Info

ADS

Torrent’s details
Name Saving General Yang 2013 720p BDRip AC3 H264 2Audio
  You will need to Register or Login to download!
Info Hash e6d617745ade9f68a7a1d67e07771f2794b5d15f
Description

Audio Sound Selectable : Cantonese + Mandarin
Text Subtitle Selectable : Thai+English






Movie: Saving General Yang
Chinese: 忠烈杨家将
Director: Ronny Yu
Writer: Edmond Wong
Producer: Bak-Ming Wong
World Premiere: March 28, 2013 (Hong Kong International Film Festival)
Release Date: April 4, 2013
Runtime: 102 minutes
Language: Mandarin, Cantonese
Country: Hong Kong
Cast
Ekin Cheng - Yang's Eldest Son
Chun Wu - Yang's Sixth Son
Raymond Lam - Yang's Fifth Son
Adam Cheng - General Yang
Vic Chow - Yang's Third Son
Chen Li - Yang's Forth Son
Bo Yu - Yang's Second Son
Xin Bo Fu - Yang's Youngest Son
Fan Xu
Bing Shao
Ady Ang


        Saving General Yang is based on the legendary Generals of the Yang Family. An epic tale about the renowned Song Dynasty's military defense headed by the clan of Yang against the nomadic Northern nation the Liao, sometimes also known as the Khitans in accounts of ancient Chinese history. Head of the Yang clan is the charismatic old veteran general, Yang Ye, who is also the father of seven sons, namely Ping, Ding, Ang, Hui, De, Zhao and Si. The seven young men possess different temperaments and characters, but they have to join forces and wits when their father is taken by enemy forces.













Code
Complete name                            : Saving.General.Yang.2013.720p.BDRip.AC3.x264.2Audio.Sub.TH-sakwor.mkv
Format                                   : Matroska
Format version                           : Version 4 / Version 2
File size                                : 2.34 GiB
Duration                                 : 1h 41mn
Overall bit rate                         : 3 286 Kbps
Movie name                               : Saving.General.Yang.2013.720p.BDRip.AC3.x264.2Audio.Sub.TH-sakwor.mkv
Encoded date                             : UTC 2013-06-06 06:53:53
Writing application                      : mkvmerge v6.0.0 ('Coming Up For Air') built on Jan 20 2013 09:52:00
Writing library                          : libebml v1.3.0 + libmatroska v1.4.0

Video
ID                                       : 1
Format                                   : AVC
Format/Info                              : Advanced Video Codec
Format profile                           : High@L4.1
Format settings, CABAC                   : Yes
Format settings, ReFrames                : 3 frames
Codec ID                                 : V_MPEG4/ISO/AVC
Duration                                 : 1h 41mn
Bit rate                                 : 2 500 Kbps
Width                                    : 1 280 pixels
Height                                   : 534 pixels
Display aspect ratio                     : 2.40:1
Frame rate mode                          : Constant
Frame rate                               : 24.000 fps
Color space                              : YUV
Chroma subsampling                       : 4:2:0
Bit depth                                : 8 bits
Scan type                                : Progressive
Bits/(Pixel*Frame)                       : 0.152
Stream size                              : 1.75 GiB (75%)
Title                                    : ENCODER SAKWOR
Writing library                          : x264 core 116 r2019M 9cc407d
Encoding settings                        : cabac=1 / ref=3 / deblock=1:0:0 / analyse=0x3:0x133 / me=umh / subme=7 / psy=1 / psy_rd=1.00:0.20 / mixed_ref=1 / me_range=16 / chroma_me=1 / trellis=1 / 8x8dct=1 / cqm=0 / deadzone=21,11 / fast_pskip=1 / chroma_qp_offset=-3 / threads=8 / sliced_threads=0 / nr=0 / decimate=1 / interlaced=0 / bluray_compat=0 / constrained_intra=0 / bframes=3 / b_pyramid=1 / b_adapt=2 / b_bias=0 / direct=3 / weightb=1 / open_gop=0 / weightp=2 / keyint=240 / keyint_min=24 / scenecut=40 / intra_refresh=0 / rc_lookahead=40 / rc=2pass / mbtree=1 / bitrate=2500 / ratetol=1.0 / qcomp=0.60 / qpmin=10 / qpmax=51 / qpstep=4 / cplxblur=20.0 / qblur=0.5 / ip_ratio=1.40 / aq=1:1.00
Language                                 : Chinese
Default                                  : Yes
Forced                                   : No

Audio #1
ID                                       : 2
Format                                   : AC-3
Format/Info                              : Audio Coding 3
Mode extension                           : CM (complete main)
Format settings, Endianness              : Big
Codec ID                                 : A_AC3
Duration                                 : 1h 41mn
Bit rate mode                            : Constant
Bit rate                                 : 384 Kbps
Channel(s)                               : 6 channels
Channel positions                        : Front: L C R, Side: L R, LFE
Sampling rate                            : 48.0 KHz
Bit depth                                : 16 bits
Compression mode                         : Lossy
Stream size                              : 280 MiB (12%)
Title                                    : CANTONESE
Language                                 : Chinese
Default                                  : Yes
Forced                                   : No

Audio #2
ID                                       : 3
Format                                   : AC-3
Format/Info                              : Audio Coding 3
Mode extension                           : CM (complete main)
Format settings, Endianness              : Big
Codec ID                                 : A_AC3
Duration                                 : 1h 41mn
Bit rate mode                            : Constant
Bit rate                                 : 384 Kbps
Channel(s)                               : 6 channels
Channel positions                        : Front: L C R, Side: L R, LFE
Sampling rate                            : 48.0 KHz
Bit depth                                : 16 bits
Compression mode                         : Lossy
Stream size                              : 280 MiB (12%)
Title                                    : MANDARIN
Language                                 : Chinese
Default                                  : No
Forced                                   : No

Text #1
ID                                       : 4
Format                                   : VobSub
Codec ID                                 : S_VOBSUB
Codec ID/Info                            : The same subtitle format used on DVDs
Title                                    : 480P
Language                                 : Thai
Default                                  : No
Forced                                   : No

Text #2
ID                                       : 5
Format                                   : VobSub
Codec ID                                 : S_VOBSUB
Codec ID/Info                            : The same subtitle format used on DVDs
Title                                    : 1080P
Language                                 : Thai
Default                                  : Yes
Forced                                   : Yes

Text #3
ID                                       : 6
Format                                   : UTF-8
Codec ID                                 : S_TEXT/UTF8
Codec ID/Info                            : UTF-8 Plain Text
Title                                    : SRT
Language                                 : Thai
Default                                  : No
Forced                                   : No

Text #4
ID                                       : 7
Format                                   : UTF-8
Codec ID                                 : S_TEXT/UTF8
Codec ID/Info                            : UTF-8 Plain Text
Title                                    : SRT
Language                                 : English
Default                                  : No
Forced                                   : No

Text #5
ID                                       : 8
Format                                   : PGS
Codec ID                                 : S_HDMV/PGS
Codec ID/Info                            : The same subtitle format used on BDs/HD-DVDs
Title                                    : PGS
Language                                 : Thai
Default                                  : No
Forced                                   : No
Menu
00:00:00.000                             : en:00:00:00.000
00:04:24.791                             : en:00:04:24.791
00:11:40.875                             : en:00:11:40.875
00:15:10.875                             : en:00:15:10.875
00:18:45.291                             : en:00:18:45.291
00:24:23.375                             : en:00:24:23.375
00:32:02.958                             : en:00:32:02.958
00:36:16.625                             : en:00:36:16.625
00:40:39.958                             : en:00:40:39.958
00:45:28.000                             : en:00:45:28.000
00:51:02.250                             : en:00:51:02.250
00:56:22.250                             : en:00:56:22.250
01:00:56.041                             : en:01:00:56.041
01:05:35.500                             : en:01:05:35.500
01:10:13.125                             : en:01:10:13.125
01:14:43.916                             : en:01:14:43.916
01:22:09.583                             : en:01:22:09.583
01:26:18.250                             : en:01:26:18.250
01:31:18.166                             : en:01:31:18.166
01:35:08.500                             : en:01:35:08.500

IMDB
IMDB Extra
More.Info
Category Hong Kong Movie 720p-1080p
Rating
Size 2.34 GB
Show/Hide Files
1 file
AddDate 07/06/2013
Uploader ANONYMOUS
Speed 0 KB/sec
Down 598 times
peers seeds: 11, leechers: 0 = 11 peers
Who thanked
Report
Reseed


23/04/2014 10.37 pm

thnx grin.gifgrin.gif
05/01/2014 08.10 am

Terimah kasih.thumbsup.gif
30/09/2013 12.30 am

Thank you!!smile1.gif
04/08/2013 02.05 am

Thank you uploader!




ADS