User Info

ADS

Torrent’s details
Name Barfi! 2012 720p DVDRip x264 AC3 ESubs
  You will need to Register or Login to download!
Info Hash e6bcaed3976836d49aeae04d6c2d33800dd37460
Description Barfi! (2012) 720p DVDRip x264 AC3


■ ███ |Source........[ DVD9 [DDR] ]██▀
· ▀ ██ ▄ |Release Date..[ 10/1½012 ]▐█▌
▄▓▄ ▀▀▀▀|Runtime.......[ 2:31:00]██
▀▄▀▄▀▀█▄|Resolution....[ 1280 x 544 ]▐█░▄▓▄
■▄ ▀█ └· Framerate.....[ 23.976 FPS ] ██▀▄▀
▓██ █▌|Disks.........[ ⅔ DVD] ██
■░██ ▐█▌|Size..........[ 3.0 GB ] ░■▀█
▀ ██ ▄■ ▀ ██ ▄■
▀██▀Video Codec...[ x264 ]▀██▀
░ ██▄Video Bitrate.[ 2397 Kb/s] ░ ██▄
░░■▀ ██Audio Info....[ 448 5.1 AC3R ] ░░■▀ ██
░░▓█▄▀Audio Language[ Hindi]░░▓█▄▀
░░░ ░███Subtitles.....[ English]░░░ ░██
░ ░ ███ ░ ░██░░ ██
░▄███░ Container.....[ MKV] ▐█ █▒▓█ ·
▀ ▀▀░░░░░│STORY.OUTLINE│░░░░▒░░░░░░▒░░░░░░░░░░░▒▒▒▓PLOT░░ ░░░ ██
░■░ ■ ░├──┴─────────────┘ ░ ░ ░ ▄█▓
░░░░░ · |░░░░░ ██
· ░ ░| Cast :Ranbir Kapoor Bhola Raja Sapkota░ ░░ ▄ ██
▄▀█▄ ░ ░ └ Priyanka Chopra Jishu Sengupta░░░░▓█▀
██▓▓ ░░| Roopali Ganguly Saurabh Shukla ░▄▓█▀
▀▀ ░| Haradhan BannerjeeNigam Thakur ░▀▄███ ▀
██| Sumona ChakravartiUday Tikekar▀████ ▀
▐█░▄▓▄└ Rahul GargAshish Vidyarthi██
░██░ ▀▄▀IleanaAkash Khurana ▐█░░ ▄▓▄
██░░██▀▄▀
░███ ░░░░.███░░░
▀███ ▄■ | Director:Anurag Basu■▀█ ░░░
▀██▀│ Writer:Anurag Basu░░▀███ ▄■
░ ██▄ Sanjeev Dutta ░░░▀██▀
░░■▀ ██ ░ ██▄
░░▓█▄▀Genre :Comedy | Drama | Romance ░■▀ ██
░░░ ░██░▓█▄
░ ░██░░ ██ ░ ░████
██Set in the 1970s in a pretty corner of India, █ ████
░░ ███ Barfi! is the story of three young people who ████ ░
░░██learn that love can neither be defined nor░░███ ░
░░█contained by society's norms of normal and████░
░ █abnormal. Barfi, a hearing and speech impaired ███▀■░
░▄█boy falls in love with Shruti. In spite of her ░██▀ ▄▀░ ░
███■ ░ deep affection for Barfii, Shruti gives into ▐██▄█
░ ████ societal and parental pressure to marry a █▌ ██░░
░░░░░ ██'normal' man and lead a 'normal' life. Many░ ███ ░ ░░
░ ░░ ▄ ██years later their paths cross once again when░███░░ ░░
░░░░▓█▀Barfi, now in love with Jhilmil, is on the run ░ ███░░░░░
░▄▓█▀ from the police. Barfi is desperately seeking░ █ ██░░░
░▀▄▀██ ▀Jhilmil, who has gone missing. Shruti's░██ █░░
▀▄▀██ ▀realization that Jhilmil is autistic makes her ░░█ ██░
▄███▀■ recognize that true love is really blind. ░░ █ ██░
▓██▀ ▄▀ Caught in a cat and mouse game, in the search ░ █ ██░
█▓ ▄█░█ ██ ░
▌ ██░ IMDB Link : ████▀■░░
■██ ▓██▀ ▄▀ ░
██ ■ ░http://www.imdb.com/title/tt2082197/ ██▓ ▄█░░
░ █▄▐█▌ ██░░
██ ▄ Users Rating : 8.7/10 ██ ██ ▀
General
Complete name: Barfi! 2012 720p DVDRip x264 AC3 ESubs.mkv
Format : Matroska
Format version : Version 2
File size: 3.00 GiB
Duration : 2h 30mn
Overall bit rate : 2 846 Kbps
Encoded date : UTC 2012-11-11 12:39:42
Writing application: mkvmerge v5.7.0 ('The Whirlwind') built on Jul8 2012 20:08:51
Writing library: libebml v1.2.3 + libmatroska v1.3.0

Video
ID : 1
Format : AVC
Format/Info: Advanced Video Codec
Format profile : High@L4.2
Format settings, CABAC : Yes
Format settings, ReFrames: 4 frames
Codec ID : V_MPEG4/ISO/AVC
Duration : 2h 30mn
Bit rate : 2 397 Kbps
Width: 1 280 pixels
Height : 544 pixels
Display aspect ratio : 2.35:1
Frame rate mode: Constant
Frame rate : 23.976 fps
Color space: YUV
Chroma subsampling : 4:2:0
Bit depth: 8 bits
Scan type: Progressive
Bits/(Pixel*Frame) : 0.144
Stream size: 2.47 GiB (82%)
Title: Barfi 720p [DDR]
Writing library: x264 core 125 r2200 999b753
Language : Hindi
Default: Yes
Forced : No

Audio
ID : 2
Format : AC-3
Format/Info: Audio Coding 3
Mode extension : CM (complete main)
Format settings, Endianness: Big
Codec ID : A_AC3
Duration : 2h 30mn
Bit rate mode: Constant
Bit rate : 448 Kbps
Channel(s) : 6 channels
Channel positions: Front: L C R, Side: L R, LFE
Sampling rate: 48.0 KHz
Bit depth: 16 bits
Compression mode : Lossy
Delay relative to video: 15ms
Stream size: 483 MiB (16%)
Title: Hindi 5.1 [DDR]
Language : Hindi
Default: Yes
Forced : No







IMDB
IMDB Extra
More.Info
Category Indian Movie
Rating
Size 3.00 GB
Show/Hide Files
2 files
AddDate 22/11/2012
Uploader ANONYMOUS
Speed 0 KB/sec
Down 196 times
peers seeds: 0, leechers: 0 = 0 peers
Who thanked
Report
Reseed


05/12/2013 02.37 pm

great moviethumbsup.gif
10/03/2013 09.03 am

TR Subtitles cry.gif
22/12/2012 07.03 pm

kamsahamnida
smile1.gif
05/12/2012 06.18 pm

THANK U VERY MUCH FOR THE SHAREcool1.giftongue.giflaugh.gif
26/11/2012 09.13 am

ty for your hard work smile1.gif
22/11/2012 06.21 pm

thanks for sharing! smile1.gif
22/11/2012 05.07 pm

Thoroughly enjoyable.  One of my favorites of the year.




ADS