User Info

ADS

Torrent’s details
Name 130409 SHINee's Wonderful Day Ep 10 720p [Eng Sub]
  You will need to Register or Login to download!
Info Hash e6a9edef784d6e8fae097cfb43e3ee3cfef1269f
Description


SHINee’s Wonderful Day

The special featured the SHINee members visiting various countries and enjoying themselves in the respective countries. For the special, Onew visited Thailand, Jonghyun visited Japan, Key and Minho visited England, and Taemin visited Switzerland.


Quote:
Cast: SHINee
Genre: Documentry
Duration: 44mn 44s
Also Known As: SHINee's Wonderful Day/One Fine Day
Language: Korean
Subtitles: English
Credits: airyarielle0718










Quote:

General
Format                                   : MPEG-4
Format profile                           : Base Media / Version 2
Codec ID                                 : mp42
File size                                : 832 MiB
Duration                                 : 44mn 44s
Overall bit rate mode                    : Variable
Overall bit rate                         : 2 599 Kbps
Encoded date                             : UTC 2013-04-16 07:21:02
Tagged date                              : UTC 2013-04-16 07:21:02

Video
ID                                       : 1
Format                                   : AVC
Format/Info                              : Advanced Video Codec
Format profile                           : High@L3.1
Format settings, CABAC                   : Yes
Format settings, ReFrames                : 1 frame
Codec ID                                 : avc1
Codec ID/Info                            : Advanced Video Coding
Duration                                 : 44mn 44s
Bit rate                                 : 2 405 Kbps
Maximum bit rate                         : 7 312 Kbps
Width                                    : 1 280 pixels
Height                                   : 720 pixels
Display aspect ratio                     : 16:9
Frame rate mode                          : Constant
Frame rate                               : 29.970 fps
Color space                              : YUV
Chroma subsampling                       : 4:2:0
Bit depth                                : 8 bits
Scan type                                : Progressive
Bits/(Pixel*Frame)                       : 0.087
Stream size                              : 770 MiB (93%)
Tagged date                              : UTC 2013-04-16 07:24:43

Audio
ID                                       : 2
Format                                   : AAC
Format/Info                              : Advanced Audio Codec
Format profile                           : LC
Codec ID                                 : 40
Duration                                 : 44mn 44s
Bit rate mode                            : Variable
Bit rate                                 : 192 Kbps
Maximum bit rate                         : 201 Kbps
Channel(s)                               : 2 channels
Channel positions                        : Front: L R
Sampling rate                            : 44.1 KHz
Compression mode                         : Lossy
Stream size                              : 61.4 MiB (7%)
Encoded date                             : UTC 2013-04-16 07:23:30
Tagged date                              : UTC 2013-04-16 07:24:43

IMDB No IMDB ID been added..
Category Korean TV 720p-1080p
Rating
Size 831.96 MB
Show/Hide Files
1 file
AddDate 18/04/2013
Uploader ANONYMOUS
Speed 0 KB/sec
Down 457 times
peers seeds: 4, leechers: 0 = 4 peers
Who thanked
Report
Reseed


24/04/2013 12.20 am

i'll be sad too... i love these. thank you
23/04/2013 06.29 pm

I'll be so sad when this ends. Thanks for uploading.
18/04/2013 12.51 pm

You guys do the best job at subbing. And so fast! Thank you! Thank you!
18/04/2013 12.51 pm

You guys do the best job at subbing. And so fast! Thank you! Thank you!




ADS