User Info

ADS

Torrent’s details
Name Yae no Sakura - Ep 30 to 31
  You will need to Register or Login to download!
Info Hash e4418c710554238fb80c96ad1a2c6230f24fed03
Description


Japanese Title: 八重の桜
Romaji: Yae no Sakura
Year: 2013
Station: NHK
Cast: Among others, Ayase Haruka in the main part.
Rating: Average of 4.2 / 5 on MyDramaList
Subtitles: Available at D-Addicts (up to Episode 21 at the moment)

Synopsis:
“Yae no Sakura” will tell the story of Niijima Yae, also known as Yamamoto Yaeko, who was born into the Aizu Domain during the late Edo period. Skilled in gunnery, she helped defend Aizu during the Boshin War, earning her the nickname of the “Bakumatsu Joan of Arc.” After the war, she married educator Joseph Hardy Neesima (Niijima Jo) and became a Christian, and she helped Neesima found Doshisha University.




Code
General
Complete name                            : YAE NO SAKURAYae no Sakura Ep30 (1280x720 x264-AAC).mp4
Format                                   : MPEG-4
Format profile                           : Base Media
Codec ID                                 : isom
File size                                : 798 MiB
Duration                                 : 44mn 30s
Overall bit rate mode                    : Variable
Overall bit rate                         : 2 507 Kbps
Encoded date                             : UTC 2013-07-28 04:20:49
Tagged date                              : UTC 2013-07-28 04:20:49
Comment                                  : Encoded by くずおれる 

Video
ID                                       : 1
Format                                   : AVC
Format/Info                              : Advanced Video Codec
Format profile                           : High@L4.1
Format settings, CABAC                   : Yes
Format settings, ReFrames                : 5 frames
Codec ID                                 : avc1
Codec ID/Info                            : Advanced Video Coding
Duration                                 : 44mn 30s
Bit rate                                 : 2 362 Kbps
Maximum bit rate                         : 23.0 Mbps
Width                                    : 1 280 pixels
Height                                   : 720 pixels
Display aspect ratio                     : 16:9
Frame rate mode                          : Constant
Frame rate                               : 29.970 fps
Color space                              : YUV
Chroma subsampling                       : 4:2:0
Bit depth                                : 8 bits
Scan type                                : Progressive
Bits/(Pixel*Frame)                       : 0.086
Stream size                              : 752 MiB (94%)
Title                                    : Imported with GPAC 0.4.6-DEV (internal rev. 5)
Writing library                          : x264 core 120 r2120 0c7dab9
Encoding settings                        : cabac=1 / ref=5 / deblock=1:-1:-1 / analyse=0x3:0x113 / me=umh / subme=9 / psy=1 / psy_rd=1.00:0.15 / mixed_ref=1 / me_range=32 / chroma_me=1 / trellis=2 / 8x8dct=1 / cqm=0 / deadzone=21,11 / fast_pskip=1 / chroma_qp_offset=-3 / threads=6 / sliced_threads=0 / nr=0 / decimate=1 / interlaced=0 / bluray_compat=0 / constrained_intra=0 / bframes=3 / b_pyramid=2 / b_adapt=2 / b_bias=0 / direct=3 / weightb=1 / open_gop=0 / weightp=2 / keyint=250 / keyint_min=25 / scenecut=40 / intra_refresh=0 / rc_lookahead=60 / rc=crf / mbtree=1 / crf=19.0 / qcomp=0.60 / qpmin=0 / qpmax=69 / qpstep=4 / ip_ratio=1.40 / aq=1:1.00
Encoded date                             : UTC 2013-07-28 04:20:49
Tagged date                              : UTC 2013-07-28 04:21:11

Audio
ID                                       : 2
Format                                   : AAC
Format/Info                              : Advanced Audio Codec
Format profile                           : LC
Codec ID                                 : 67
Duration                                 : 44mn 30s
Bit rate mode                            : Variable
Bit rate                                 : 141 Kbps
Maximum bit rate                         : 147 Kbps
Channel(s)                               : 2 channels
Channel positions                        : Front: L R
Sampling rate                            : 48.0 KHz
Compression mode                         : Lossy
Stream size                              : 44.8 MiB (6%)
Title                                    : Imported with GPAC 0.4.6-DEV (internal rev. 5)
Language                                 : Japanese
Encoded date                             : UTC 2013-07-28 04:21:06
Tagged date                              : UTC 2013-07-28 04:21:11

IMDB
IMDB Extra
More.Info
Category Japanese TV 720p-1080p
Rating
Size 1.63 GB
Show/Hide Files
2 files
AddDate 09/08/2013
Uploader ANONYMOUS
Speed 0 KB/sec
Down 161 times
peers seeds: 7, leechers: 0 = 7 peers
Who thanked
Report
Reseed


No comments...




ADS