User Info

ADS

Torrent’s details
Name Master's Sun E12 HDTV XVID LIMO
  You will need to Register or Login to download!
Info Hash e29edd839e1286808b37d38b08d918fffffca1ba
Description

Details

Title: 주군의 태양 / Joogoonui Taeyang
Also known as: The Sun of My Master / The Sun of the Lord
Genre: Horror, fantasy, romance, comedy
Episodes: 16
Broadcast network: SBS
Broadcast period: 2013-Aug-07 to 2013-???-??
Air time: Wednesday & Thursday 22:00
Subtitles by Dramafever and Viki will be added later

Synopsis

Joo Joong Won (So Ji Sub) is a cold and ambitious CEO, who measures all human relationships through money. Tae Gong Sil (Gong Hyo Jin) is a sensitive assistant, who suffers from insomnia, due to her ability to see ghosts after an accident. Joong Won will learn to trust Gong Sil and falls in love with her.

Main Cast
So Ji Sub as Joo Joong Won / Joo-goon
L as young Joong Won
Gong Hyo Jin as Tae Gong Sil / Tae-yang
Seo In Guk as Kang Woo
Kim Yoo Ri as Tae Yi Ryung
People around Joo Joong Won
Choi Jung Woo as Kim Gwi Do
Kim Mi Kyung as Joo Sung Ran (Joong Won's aunt)
Lee Jong Won as Do Suk Chul (Sung Ran's husband)
People around Tae Gong Sil
Park Hee Bon as Tae Gong Ri (Gong Sil's sister)
Hong Eun Taek as Lee Seung Joon
Lee Do Hyun as Lee Seung Mo
Others
Lee Jae Won as Lee Han Joo (security team member)
Jung Ga Eun as Ahn Jin Joo (shopping mall employee)





Code
Video
ID                                       : 0
Format                                   : MPEG-4 Visual
Format profile                           : Advanced Simple@L5
Format settings, BVOP                    : No
Format settings, QPel                    : No
Format settings, GMC                     : No warppoints
Format settings, Matrix                  : Default (MPEG)
Codec ID                                 : XVID
Codec ID/Hint                            : XviD
Duration                                 : 1h 6mn
Bit rate                                 : 1 391 Kbps
Width                                    : 624 pixels
Height                                   : 352 pixels
Display aspect ratio                     : 16:9
Frame rate                               : 29.970 fps
Color space                              : YUV
Chroma subsampling                       : 4:2:0
Bit depth                                : 8 bits
Scan type                                : Progressive
Compression mode                         : Lossy
Bits/(Pixel*Frame)                       : 0.211
Stream size                              : 660 MiB (87%)
Writing library                          : XviD 1.2.1 (UTC 2008-12-04)

Audio
ID                                       : 1
Format                                   : MPEG Audio
Format version                           : Version 1
Format profile                           : Layer 3
Mode                                     : Joint stereo
Mode extension                           : MS Stereo
Codec ID                                 : 55
Codec ID/Hint                            : MP3
Duration                                 : 1h 6mn
Bit rate mode                            : Constant
Bit rate                                 : 128 Kbps
Channel(s)                               : 2 channels
Sampling rate                            : 48.0 KHz
Compression mode                         : Lossy
Stream size                              : 60.8 MiB (8%)
Alignment                                : Aligned on interleaves
Writing library                          : LAME3.98.2

IMDB No IMDB ID been added..
Category Korean TV
Rating
Size 719.03 MB
Show/Hide Files
1 file
AddDate 12/09/2013
Uploader ANONYMOUS
Speed 0 KB/sec
Down 882 times
peers seeds: 2, leechers: 0 = 2 peers
Who thanked
Report
Reseed


18/09/2013 11.32 pm

So wait a minute it's saying 16 episodes, but it seems this was the last one...
Am I wrong?
14/09/2013 05.13 pm

NOOOOOOOOOOOOOOOOOOOOOOOOOOOOOOOOOOOOOOOOOOOOOOOOOOOOOO!!!!!!!!!!!!!!!!!!!!!!!!!!!!!!!
14/09/2013 04.21 am

perfect!!

13/09/2013 12.19 pm

thank you!!!!!grin.gifgrin.gifgrin.gifgrin.gifgrin.gifgrin.gif
12/09/2013 11.47 pm

am so hook on this drama. love the male/female lead.
thank for the fast sub upload.
12/09/2013 09.13 pm

thank you
magik kdrama and thank you fro subb aded toosmile1.gif
12/09/2013 04.52 pm

thank you!! i'm so into this drama xD
12/09/2013 03.33 pm

Thanks =) smile1.gif
12/09/2013 03.04 pm

Thank You!smile1.gifsmile1.gifsmile1.gifsmile1.gifsmile1.gifsmile1.gif




ADS