User Info

ADS

Torrent’s details
Name SBS Family Outing Season 1 (English Hardsubbed)
  You will need to Register or Login to download!
Info Hash dffbf44e4479ca1cc582f3a36753d26be0f6de1e
Description



Family Outing Season 1 (Korean: 패밀리가 떴다; literally Family's Here) was a South Korean variety show; a part of SBS's Good Sunday lineup, along with Gold Miss is Coming (골드미스가 간다). It was first aired on June 15, 2008, and was one of the top rated programs on Sunday Korean television. In each episode, the "Family" travels to different parts of South Korea and takes care of the house of an elderly family while that family goes on a vacation. The "Family" then accomplishes the tasks left for them by the house's owners. The first season ended on February 14, 2010, and a second season featuring a brand new cast, production team, and concept, aired until July 11, 2010.


http://en.wikipedia.org/wiki/Family_Outing

Genre -
Reality, Variety, Comedy

Starring -

Yu Jae-suk (2008-2010)
Lee Hyo-ri (2008-2010)
Kim Su-ro (2008-2010)
Yoon Jong-shin (2008-2010)
Dae-sung (2008-2010)
Kim Jong-kook (2008-2010)
Park Hae-jin (2008-2010)
Park Ye-jin (2008-2009)
Lee Chun-hee (2008-2009)
Park Si-yeon (2009)

Country of origin -
South Korea

Language(s) -
Korean

No. of episodes -
85

Production:

Executive producer(s) Jang Hyuk-jae
Camera setup Multi-camera setup
Running time 70-80 minutes

Broadcast Original channel -
SBS
Picture format 4:3
Audio format Stereo
Original run June 15, 2008 – February 14, 2010

Country: Korea
Language: Korean
Subtitles: ENGLISH HardSubbed

























General
Complete name [FOPSS] SBS Family Outing Ep. 01 - Kim Dong-wan (Shinra).avi
Format                                   : AVI
Format/Info                              : Audio Video Interleave
File size                                : 608 MiB
Duration                                 : 1h 14mn
Overall bit rate                         : 1 141 Kbps
Writing application                      : VirtualDubMod 1.5.10.2 (build 2540/release)
Writing library                          : VirtualDubMod build 2540/release

Video
ID                                       : 0
Format                                   : AVC
Format/Info                              : Advanced Video Codec
Format profile                           : High@L5.1
Format settings, CABAC                   : Yes
Format settings, ReFrames                : 2 frames
Codec ID                                 : H264
Duration                                 : 1h 14mn
Bit rate                                 : 1 000 Kbps
Width                                    : 640 pixels
Height                                   : 480 pixels
Display aspect ratio                     : 4:3
Frame rate                               : 29.970 fps
Color space                              : YUV
Chroma subsampling                       : 4:2:0
Bit depth                                : 8 bits
Scan type                                : Progressive
Bits/(Pixel*Frame)                       : 0.109
Stream size                              : 534 MiB (88%)
Writing library                          : x264 core 54 rev 600
Encoding settings                        : cabac=1 / ref=1 / deblock=1:0:0 / analyse=0x3:0x113 / me=hex / subme=5 / brdo=0 / mixed_ref=0 / me_range=16 / chroma_me=1 / trellis=1 / 8x8dct=1 / cqm=0 / deadzone=21,11 / chroma_qp_offset=0 / slices=1 / nr=0 / decimate=1 / mbaff=0 / bframes=2 / b_pyramid=0 / b_adapt=1 / b_bias=0 / direct=3 / wpredb=1 / bime=0 / keyint=250 / keyint_min=25 / scenecut=40 / rc=abr / bitrate=1000 / ratetol=1.0 / rceq='blurCplx^(1-qComp)' / qcomp=0.60 / qpmin=10 / qpmax=51 / qpstep=4 / ip_ratio=1.40 / pb_ratio=1.30

Audio
ID                                       : 1
Format                                   : MPEG Audio
Format version                           : Version 1
Format profile                           : Layer 3
Codec ID                                 : 55
Codec ID/Hint                            : MP3
Duration                                 : 1h 14mn
Bit rate mode                            : Constant
Bit rate                                 : 128 Kbps
Channel(s)                               : 2 channels
Sampling rate                            : 48.0 KHz
Compression mode                         : Lossy
Stream size                              : 68.3 MiB (11%)
Alignment                                : Split accross interleaves
Interleave, duration                     : 33 ms (1.00 video frame)
Interleave, preload duration             : 500 ms

General
Complete name SBS Family Outing�80622 [FOPSS] SBS Family Outing Ep. 02 - Kim Dong-wan (Shinra).avi
Format                                   : AVI
Format/Info                              : Audio Video Interleave
File size                                : 535 MiB
Duration                                 : 1h 5mn
Overall bit rate                         : 1 146 Kbps
Writing application                      : VirtualDubMod 1.5.10.2 (build 2540/release)
Writing library                          : VirtualDubMod build 2540/release

Video
ID                                       : 0
Format                                   : AVC
Format/Info                              : Advanced Video Codec
Format profile                           : High@L5.1
Format settings, CABAC                   : Yes
Format settings, ReFrames                : 2 frames
Codec ID                                 : H264
Duration                                 : 1h 5mn
Bit rate                                 : 1 000 Kbps
Width                                    : 640 pixels
Height                                   : 480 pixels
Display aspect ratio                     : 4:3
Frame rate                               : 29.970 fps
Color space                              : YUV
Chroma subsampling                       : 4:2:0
Bit depth                                : 8 bits
Scan type                                : Progressive
Bits/(Pixel*Frame)                       : 0.109
Stream size                              : 469 MiB (88%)
Writing library                          : x264 core 54 rev 600
Encoding settings                        : cabac=1 / ref=1 / deblock=1:0:0 / analyse=0x3:0x113 / me=hex / subme=5 / brdo=0 / mixed_ref=0 / me_range=16 / chroma_me=1 / trellis=1 / 8x8dct=1 / cqm=0 / deadzone=21,11 / chroma_qp_offset=0 / slices=1 / nr=0 / decimate=1 / mbaff=0 / bframes=2 / b_pyramid=0 / b_adapt=1 / b_bias=0 / direct=3 / wpredb=1 / bime=0 / keyint=250 / keyint_min=25 / scenecut=40 / rc=abr / bitrate=1000 / ratetol=1.0 / rceq='blurCplx^(1-qComp)' / qcomp=0.60 / qpmin=10 / qpmax=51 / qpstep=4 / ip_ratio=1.40 / pb_ratio=1.30

Audio
ID                                       : 1
Format                                   : MPEG Audio
Format version                           : Version 1
Format profile                           : Layer 3
Codec ID                                 : 55
Codec ID/Hint                            : MP3
Duration                                 : 1h 5mn
Bit rate mode                            : Constant
Bit rate                                 : 128 Kbps
Channel(s)                               : 2 channels
Sampling rate                            : 48.0 KHz
Compression mode                         : Lossy
Stream size                              : 59.7 MiB (11%)
Alignment                                : Split accross interleaves
Interleave, duration                     : 33 ms (1.00 video frame)
Interleave, preload duration             : 500 ms

General
Complete name [FOPSS] SBS Family Outing Ep. 03 - Brian (Fly to the Sky).avi
Format                                   : AVI
Format/Info                              : Audio Video Interleave
File size                                : 571 MiB
Duration                                 : 1h 6mn
Overall bit rate                         : 1 201 Kbps
Writing application                      : VirtualDubMod 1.5.10.2 (build 2540/release)
Writing library                          : VirtualDubMod build 2540/release

Video
ID                                       : 0
Format                                   : AVC
Format/Info                              : Advanced Video Codec
Format profile                           : High@L5.1
Format settings, CABAC                   : Yes
Format settings, ReFrames                : 1 frame
Codec ID                                 : H264
Duration                                 : 1h 6mn
Bit rate                                 : 1 000 Kbps
Width                                    : 640 pixels
Height                                   : 480 pixels
Display aspect ratio                     : 4:3
Frame rate                               : 29.970 fps
Color space                              : YUV
Chroma subsampling                       : 4:2:0
Bit depth                                : 8 bits
Scan type                                : Progressive
Bits/(Pixel*Frame)                       : 0.109
Stream size                              : 474 MiB (83%)
Writing library                          : x264 core 60 r913bm 64848ff
Encoding settings                        : cabac=1 / ref=1 / deblock=1:0:0 / analyse=0x3:0x33 / me=umh / subme=6 / brdo=0 / mixed_ref=0 / me_range=16 / chroma_me=1 / trellis=1 / 8x8dct=1 / cqm=0 / deadzone=21,11 / chroma_qp_offset=0 / threads=1 / nr=0 / decimate=1 / mbaff=0 / bframes=0 / keyint=250 / keyint_min=25 / scenecut=40 / rc=abr / bitrate=1000 / ratetol=1.0 / rceq='blurCplx^(1-qComp)' / qcomp=1.00 / qpmin=10 / qpmax=51 / qpstep=4 / ip_ratio=1.40 / aq=2:1.00

Audio
ID                                       : 1
Format                                   : AC-3
Format/Info                              : Audio Coding 3
Mode extension                           : D (dialogue)
Format settings, Endianness              : Big
Codec ID                                 : 2000
Duration                                 : 1h 6mn
Bit rate mode                            : Constant
Bit rate                                 : 192 Kbps
Channel(s)                               : 2 channels
Channel positions                        : Front: L R
Sampling rate                            : 48.0 KHz
Bit depth                                : 16 bits
Compression mode                         : Lossy
Stream size                              : 91.2 MiB (16%)
Alignment                                : Split accross interleaves
Interleave, duration                     : 33 ms (1.00 video frame)
Interleave, preload duration             : 500 ms

General
Complete name [FOPSS] SBS Family Outing Ep. 04 - Brian (Fly to the Sky).avi
Format                                   : AVI
Format/Info                              : Audio Video Interleave
File size                                : 588 MiB
Duration                                 : 1h 7mn
Overall bit rate                         : 1 212 Kbps
Writing application                      : VirtualDubMod 1.5.10.2 (build 2540/release)
Writing library                          : VirtualDubMod build 2540/release
Comment                                  : F5410FEA5698ADA24AB6C56D6A631F2B71FE525FAABEDC34F2A8CF8DF6F6E00CEF6137C13061797B8DD1021A

Video
ID                                       : 0
Format                                   : AVC
Format/Info                              : Advanced Video Codec
Format profile                           : High@L5.1
Format settings, CABAC                   : Yes
Format settings, ReFrames                : 1 frame
Codec ID                                 : H264
Duration                                 : 1h 7mn
Bit rate                                 : 1 000 Kbps
Width                                    : 640 pixels
Height                                   : 352 pixels
Display aspect ratio                     : 16:9
Frame rate                               : 29.970 fps
Color space                              : YUV
Chroma subsampling                       : 4:2:0
Bit depth                                : 8 bits
Scan type                                : Progressive
Bits/(Pixel*Frame)                       : 0.148
Stream size                              : 489 MiB (83%)
Writing library                          : x264 core 60 r913bm 64848ff
Encoding settings                        : cabac=1 / ref=1 / deblock=1:0:0 / analyse=0x3:0x33 / me=umh / subme=6 / brdo=0 / mixed_ref=0 / me_range=16 / chroma_me=1 / trellis=1 / 8x8dct=1 / cqm=0 / deadzone=21,11 / chroma_qp_offset=0 / threads=1 / nr=0 / decimate=1 / mbaff=0 / bframes=0 / keyint=250 / keyint_min=25 / scenecut=40 / rc=abr / bitrate=1000 / ratetol=1.0 / rceq='blurCplx^(1-qComp)' / qcomp=1.00 / qpmin=10 / qpmax=51 / qpstep=4 / ip_ratio=1.40 / aq=2:1.00

Audio
ID                                       : 1
Format                                   : MPEG Audio
Format version                           : Version 1
Format profile                           : Layer 3
Mode                                     : Joint stereo
Mode extension                           : MS Stereo
Codec ID                                 : 55
Codec ID/Hint                            : MP3
Duration                                 : 1h 7mn
Bit rate mode                            : Constant
Bit rate                                 : 192 Kbps
Channel(s)                               : 2 channels
Sampling rate                            : 48.0 KHz
Compression mode                         : Lossy
Stream size                              : 93.1 MiB (16%)
Alignment                                : Aligned on interleaves
Interleave, duration                     : 33 ms (1.00 video frame)
Interleave, preload duration             : 504 ms

General
Complete name[FOPSS] SBS Family Outing Ep. 05 - Park Hae-jin.avi
Format                                   : AVI
Format/Info                              : Audio Video Interleave
File size                                : 603 MiB
Duration                                 : 1h 10mn
Overall bit rate                         : 1 198 Kbps
Writing application                      : VirtualDubMod 1.5.10.2 (build 2540/release)
Writing library                          : VirtualDubMod build 2540/release

Video
ID                                       : 0
Format                                   : AVC
Format/Info                              : Advanced Video Codec
Format profile                           : High@L5.1
Format settings, CABAC                   : Yes
Format settings, ReFrames                : 1 frame
Codec ID                                 : H264
Duration                                 : 1h 10mn
Bit rate                                 : 1 000 Kbps
Width                                    : 640 pixels
Height                                   : 480 pixels
Display aspect ratio                     : 4:3
Frame rate                               : 29.970 fps
Color space                              : YUV
Chroma subsampling                       : 4:2:0
Bit depth                                : 8 bits
Scan type                                : Progressive
Bits/(Pixel*Frame)                       : 0.109
Stream size                              : 501 MiB (83%)
Writing library                          : x264 core 60 r913bm 64848ff
Encoding settings                        : cabac=1 / ref=1 / deblock=1:0:0 / analyse=0x3:0x33 / me=umh / subme=6 / brdo=0 / mixed_ref=0 / me_range=16 / chroma_me=1 / trellis=1 / 8x8dct=1 / cqm=0 / deadzone=21,11 / chroma_qp_offset=0 / threads=1 / nr=0 / decimate=1 / mbaff=0 / bframes=0 / keyint=250 / keyint_min=25 / scenecut=40 / rc=abr / bitrate=1000 / ratetol=1.0 / rceq='blurCplx^(1-qComp)' / qcomp=1.00 / qpmin=10 / qpmax=51 / qpstep=4 / ip_ratio=1.40 / aq=2:1.00

Audio
ID                                       : 1
Format                                   : AC-3
Format/Info                              : Audio Coding 3
Mode extension                           : D (dialogue)
Format settings, Endianness              : Big
Codec ID                                 : 2000
Duration                                 : 1h 10mn
Bit rate mode                            : Constant
Bit rate                                 : 192 Kbps
Channel(s)                               : 2 channels
Channel positions                        : Front: L R
Sampling rate                            : 48.0 KHz
Bit depth                                : 16 bits
Compression mode                         : Lossy
Stream size                              : 96.7 MiB (16%)
Alignment                                : Split accross interleaves
Interleave, duration                     : 33 ms (1.00 video frame)
Interleave, preload duration             : 500 ms


This is my first time creating and uploading any sort of torrent so please bare with me as I'm learning. Uploaded 5 randomly created Thumbs of the files as well as the codec video/audio information from the first five episodes just to keep the torrent cleaner then adding the info for all 80+ episodes.


̶M̶i̶s̶s̶i̶n̶g̶ ̶E̶p̶i̶s̶o̶d̶e̶s̶ ̶1̶5̶,̶ ̶1̶6̶,̶ ̶a̶n̶d̶ ̶2̶2̶.̶

Missing Episodes can now be found at http://www.asiatorrents.com/index.php?page=torrent-details&id=93d66523c34303f77d333a5436924b26a014f8ce

Credits to RamenSoupSubs, TungTungSubs, SoshiSubs, FOSubs and Gods of the East Subbing Squad as well as the few fansubbed by Throwysg & Angelyrique.
IMDB No IMDB ID been added..
Category Korean TV
Rating
Size 71.83 GB
Show/Hide Files
83 files
AddDate 18/04/2012
Uploader ANONYMOUS
Speed 1258.79 KB/sec
Down 3212 times
peers seeds: 66, leechers: 21 = 87 peers
Who thanked
Report
Reseed


16/07/2014 02.40 pm

thank you
18/06/2014 08.32 pm

I loved this show soo much and lost all my eps I downloaded back in the day when my pc crashed. All links I found online were dead. Thank you soo much for keeping this torrent alive by seeding and for sharing.
29/05/2014 04.02 pm

thank you thank you
06/05/2014 02.59 pm

thank you soooooooo much.
29/04/2014 04.59 am

thank you sooooo much. you have no idea how hard to get this
25/02/2014 09.54 am

thank yougrin.gifgrin.gifgrin.gif
10/01/2014 08.51 pm

No seeders? :O
07/01/2014 09.07 pm

no seed ohmy.gif
02/01/2014 10.27 pm

One of the greatest variety shows, thanks for uploading downloaded it before but must have deleted it, one of my favourites.
10/12/2013 11.45 pm

thank a lot grin.gif
02/12/2013 12.55 pm

Thank You For This~~ grin.gif

More Seed~~~~~~~~ Oohmy.gifohmy.gif:-
23/11/2013 01.13 pm

how to download? Pls teach me.. thx.. hehe
23/11/2013 01.13 pm

how to download? Pls teach me.. thx.. hehe
16/11/2013 03.10 am

thank youuuu
26/10/2013 08.49 am

It's about time I watched this again. Yoo Jae Seok is just so funny. I can't get enough of him. It's been quite a few years so I've forgotten so much. It'' be great to have this in my collection to watch in the future too. Thanks for putting this out there. Will seed for a few months when I'm finished.smile1.gifsmile1.gifsmile1.gifsmile1.gifsmile1.gif
10/10/2013 05.00 am

thank you so much
07/09/2013 11.00 am

Thanks for sharing
30/06/2013 02.39 am

Downloading.. Thank you so much! I can't wait to watch it. smile1.gifgrin.gif
29/06/2013 03.04 am

thanks so much!
18/06/2013 11.59 am

yess...i found it. thanks!
04/06/2013 07.44 am

Thank you thank you THANK YOU!!!!! I have been looking all over the place for this show!!! Love this season of this show so much!! So funny!!!
01/06/2013 09.56 am

thank you so much i love this show ^_^
12/05/2013 12.56 am

wow, that is so mad laugh.gif love it thumbsup.gif
01/05/2013 01.41 pm

pls seed.. cant downloadd sad.gif
01/05/2013 02.35 am

Thank you so much. I need these! grin.gif
27/04/2013 08.09 pm

Who's the group that subbed this?
I recently painstakingly downloaded all episodes via iSubs which was kind of a bitch so if I had found this torrent earlier that would've been sooo much easier cry.gif
21/04/2013 05.28 pm

Thank you so much for the upload!
17/04/2013 04.44 am

can someone seeding please, can't download this one no one seed cry.gif
im really grateful if someone willing to
14/04/2013 04.16 am

GREAT FORUMS, GREAT TORRENTS!
18/03/2013 10.59 pm

i need more seeds..can anyone help please?
17/03/2013 03.07 am

thanks for this
10/03/2013 01.43 pm

the best variety ever. thanks for sharing. grin.gif
07/03/2013 12.24 pm

I need to find ep 21 and ep 22 raw video and soft eng subs. can anybody help me?
03/03/2013 05.29 am

This is my shit. Thanks playa.
19/02/2013 09.32 am

how to download? i`m a newb..help me i`m lost...
26/01/2013 03.22 am

So glad this show fell into my lap...brought me a many great laughs grin.gif
20/01/2013 06.57 pm

Thanks for sharing grin.gif
30/12/2012 11.34 am

thanks for uploading grin.gif i've download ep 6 and 19-53 but now it says the trackers are not allowed so it's not working anymore :c i'm not very good with computers so i'm not sure what this means >< it also says the trackers aren't allowed on the other torrent with eps 15,16&20 so i can't seed that. can someone please message me with help? i'd be eternally grateful smile1.gif
25/12/2012 05.42 pm

Best show ever...  I wish we had celebs like this in the US.  thumbsup.gif
14/12/2012 01.37 am

got to replace my lost collection, thanks!
11/12/2012 05.41 am

thanks..my download is complete.ep 43 maybe file corrupted
27/11/2012 08.40 pm

Found like 60 episodes on my old laptop that I haven't uses in years, surprisingly only 3 weren't the same sizes, I would start the torrent and help with the seeding but unfortunately I had rename most of it for my own organization. Gonna try renaming them back accordingly and hash check the file and help seed as soon as I sort out this mess.
13/11/2012 06.28 am

Is this actually free leech? like it won't affect my sharing ration in anyway?
06/11/2012 11.49 pm

Thanks for uploading, this was really really great to watch!smile1.gifsmile1.gifsmile1.gifsmile1.gif
06/11/2012 12.17 am

Can people seed this please! I really want family outing season 1! grin.gif
30/10/2012 01.26 am

Thanks, Iv'e been searching this... ill seed to help everyone thanks
07/10/2012 07.59 am

Thank you! =)
27/09/2012 08.29 am

thank you grin.gif
08/09/2012 08.18 pm

"anyone having problem with ep 43 kim won-hee not working"

My episode 43 doesn't seem to work either. Tried redownloading it but no luck! Thanks to the uploader anyway this show rocks!
23/08/2012 03.12 am

need seed ... stuck at 37% and not movingcry.gifcry.gifcry.gifcry.gifcry.gifcry.gifcry.gif
29/07/2012 09.54 pm

Is this in 720p or 1080p?
23/07/2012 11.48 am

need seeders sad.gif
12/07/2012 03.35 pm

THANK YOU, THANK YOU, THANK YOU!!!
08/07/2012 06.54 am

thanks for the torrent!
03/07/2012 06.34 am

please seeds..thanks
15/06/2012 04.04 am

thank you for the torrent ^^
06/06/2012 04.18 pm

thanks
07/05/2012 10.41 pm

Thank you for this~!
I'm excitedd to watch this again!
I really miss all of them together! =[
24/04/2012 07.56 pm

anyone having problem with ep 43 kim won-hee not working
24/04/2012 07.56 pm

anyone having problem with ep 43 kim won-hee not working
21/04/2012 06.19 pm

i cant download...what happen? there's no seed? plss seed this.....
21/04/2012 05.29 pm

what happen to the seeder?
19/04/2012 04.09 am

A friend of mine recommended this to me and I managed to watch a few episodes online. So THANK YOU VERY MUCH for compiling and offering this wonderful series.....THANK YOU smile1.gif
18/04/2012 09.24 pm

You are AMAZING for doing this!! Thank you <3
18/04/2012 03.08 pm

Thanks! I've been looking for this. Now..need to find some disk space. LOL.
18/04/2012 02.42 pm

Enjoy everyone! If anyone has the missing episodes, I'd appreciate them very much. I've seen them but never had the actually files.
18/04/2012 12.38 pm

thnx alot smile1.gif
18/04/2012 12.30 pm

thank you so much for compiling all of it together!!
18/04/2012 11.25 am

OMG!! thank you soooo much!!! I have been waiting for this for soo long!! grin.gif
18/04/2012 10.56 am

i have been waiting for this! thank you very much!!




ADS