User Info

ADS

Torrent’s details
Name Junjou Pure Heart (2010)
  You will need to Register or Login to download!
Info Hash dd94cce355ef461280080f53900ec7fff60fc189
Description

http://asianmediawiki.com/Jyunjyou
http://mydramalist.info/dramas/view/6297
http://www.imdb.com/title/tt1710397/

Title: Jyunjyou
Romaji: Jyunjyou
Japanese: 純情
AKA: Junjou - Pure Heart, Partners
Genre: Drama, Romance, Boys Love
Director: Satoshi Kaneda
Writer: Hirotoshi Kobayashi, Hyota Fujiyama, Koduru
Cinematographer: Yuji Imai
Release Date: September 4, 2010
Runtime: 78 min.
Language: Japanese
Country: Japan
Subtitles: Chinese (hardsubbed)

Synopsis
Tozaki (Rakuto Tochihara), who works as a writer, meets by chance his first high school crush Kurata (Yuta Takahashi) while working on an assignment. The pair later go out for drinks with Tozaki confessing his old feelings for Kurata...

General
Complete name                    : Junjou.avi
Format                           : AVI
Format/Info                      : Audio Video Interleave
File size                        : 548 MiB
Duration                         : 1h 18mn
Overall bit rate                 : 976 Kbps
Writing library                  : MPlayer

Video
ID                               : 0
Format                           : MPEG-4 Visual
Format profile                   : Advanced Simple@L5
Format settings, BVOP            : Yes
Format settings, QPel            : No
Format settings, GMC             : No warppoints
Format settings, Matrix          : Default (H.263)
Codec ID                         : XVID
Codec ID/Hint                    : XviD
Duration                         : 1h 18mn
Bit rate                         : 804 Kbps
Width                            : 720 pixels
Height                           : 480 pixels
Display aspect ratio             : 3:2
Frame rate                       : 24.000 fps
Standard                         : NTSC
Color space                      : YUV
Chroma subsampling               : 4:2:0
Bit depth                        : 8 bits
Scan type                        : Progressive
Bits/(Pixel*Frame)               : 0.097
Stream size                      : 451 MiB (82%)
Writing library                  : XviD 1.1.2 (UTC 2006-11-01)

Audio
ID                               : 1
Format                           : MPEG Audio
Format version                   : Version 1
Format profile                   : Layer 3
Mode                             : Joint stereo
Mode extension                   : MS Stereo
Codec ID                         : 55
Codec ID/Hint                    : MP3
Duration                         : 1h 18mn
Bit rate mode                    : Constant
Bit rate                         : 160 Kbps
Channel(s)                       : 2 channels
Sampling rate                    : 44.1 KHz
Video delay                      : 42ms
Stream size                      : 89.8 MiB (16%)
Alignment                        : Aligned on interleaves
Interleave, duration             : 26 ms (0.63 video frame)
Interleave, preload duration     : 809 ms

For a better view please select the 16:9 aspect ratio.


IMDB
IMDB Extra
More.Info
Category Japanese Movie
Rating
Size 549.07 MB
Show/Hide Files
4 files
AddDate 18/06/2011
Uploader ANONYMOUS
Speed 0 KB/sec
Down 235 times
peers seeds: 2, leechers: 0 = 2 peers
Who thanked
Report
Reseed


13/01/2012 03.14 pm

Same here!
begging for english subs! Please.
And Thanks for the movie!

18/09/2011 03.39 pm

Need English subs~! >o<
10/08/2011 03.42 am

Looks good.
Where can i find ENG sub?
21/07/2011 07.42 pm

Anyone know where to get this with english subs?
01/07/2011 01.29 am

Same
25/06/2011 07.05 am

waiting to find English subs.  smile1.gif




ADS