User Info

ADS

Torrent’s details
Name Merah Putih III - Hati merdeka (Hearts of Freedom) 2011 [Indonesia]
  You will need to Register or Login to download!
Info Hash dc10bd72e7b82f91505712b7cef2d966344efc7d
Description Merah Putih III - Hati merdeka (Hearts of Freedom)


Genre: Drama, war
Director: Conor Allyn, Yadi Sugandi
Starring: Doni Alamsyah | Rahayu Saraswati | Lukman Sardi
Country: Indonesia  

language: Indonesian
Subtitle: English
Runtime: 01:42:15
Storyline: The third and final film in the award-winning box office hit MERAH PUTIH trilogy set during the 1947-48 Indonesian independence war, as a band of guerrillas fights for Indonesia's freedom on land, sea and air against the Dutch empire.

Screenshots:


MediaInfo:
General
Unique ID                        : 239651092465963789329313483650489970232 (0xB44B1F1BD6A633EF8EB06A846BFCEE38)
Complete name                    : E:МОИ РАЗДАЧИMerah Putih III - Hati Merdeka (2011).mkv
Format                           : Matroska
File size                        : 1.46 GiB
Duration                         : 1h 42mn
Overall bit rate                 : 2 042 Kbps
Encoded date                     : UTC 2012-04-30 14:38:53
Writing application              : mkvmerge v4.9.1 ('Ich will') сборка от Jul 11 2011 23:53:15
Writing library                  : libebml v1.2.1 + libmatroska v1.1.1

Video
ID                               : 1
Format                           : AVC
Format/Info                      : Advanced Video Codec
Format profile                   : High@L3.0
Format settings, CABAC           : Yes
Format settings, ReFrames        : 3 frames
Muxing mode                      : Header stripping
Codec ID                         : V_MPEG4/ISO/AVC
Duration                         : 1h 42mn
Bit rate                         : 1 849 Kbps
Width                            : 720 pixels
Height                           : 400 pixels
Display aspect ratio             : 16:9
Frame rate                       : 25.000 fps
Color space                      : YUV
Chroma subsampling               : 4:2:0
Bit depth                        : 8 bits
Scan type                        : Progressive
Bits/(Pixel*Frame)               : 0.257
Stream size                      : 1.29 GiB (89%)
Writing library                  : x264 core 79 r1342kMod e8501ef

Language                         : Indonesian

Audio
ID                               : 2
Format                           : AC-3
Format/Info                      : Audio Coding 3
Mode extension                   : CM (complete main)
Muxing mode                      : Header stripping
Codec ID                         : A_AC3
Duration                         : 1h 42mn
Bit rate mode                    : Constant
Bit rate                         : 192 Kbps
Channel(s)                       : 2 channels
Channel positions                : Front: L R
Sampling rate                    : 48.0 KHz
Bit depth                        : 16 bits
Compression mode                 : Lossy
Stream size                      : 140 MiB (9%)
Language                         : Indonesian

Text
ID                               : 3
Format                           : UTF-8
Codec ID                         : S_TEXT/UTF8
Codec ID/Info                    : UTF-8 Plain Text
Language                         : English


IMDB
IMDB Extra
More.Info
Category Other Asian Movies
Rating
Size 1.46 GB
Show/Hide Files
1 file
AddDate 30/04/2012
Uploader ANONYMOUS
Speed 0.13 KB/sec
Down 181 times
peers seeds: 0, leechers: 0 = 0 peers
Who thanked
Report
Reseed


14/05/2012 11.20 pm

EXCELLENT!




ADS