User Info

ADS

Torrent’s details
Name Warrior.Baek.Dong.Soo.E24.110920.HDTV.X264.720p-MoonChild
  You will need to Register or Login to download!
Info Hash db6d4bc389589924e366059e5366aa657879a807
Description

http://wiki.d-addicts.com/Warrior_Baek_Dong_Soo
http://www.hancinema.net/korean_drama_Warrior_Baek_Dong-soo.php
http://asianmediawiki.com/Warrior_Baek_Dong_Soo

Title: 무사 백동수 / Musa Baek Dong Soo
Previously known as: 야뇌 백동수 / Honorable Baek Dong Soo
Genre: Period
Episodes: TBA
Broadcast network: SBS
Broadcast period: 2011-Jul-04 to 2011-TBA
Air time: Monday & Tuesday 21:55
Language: Korean
Country: South Korea
Subtitles: English (by DramaFever)

Production Credits
Director: Lee Hyun-Jik
Scriptwriter: Kwon Soon Gyu (권순규), Lee Jae-Hyun (comic)
Producer: Lee Hyun Jik, Kim Hong Sun (김홍선)

Main Cast
Ji Chang Wook as Baek Dong Soo
Yeo Jin Goo as young Dong Soo
Yoo Seung Ho as Yeo Woon
Park Gun Tae as young Yeo Woon
Yoon So Yi as Hwang Jin Joo
Lee Hye In (이혜인) as young Jin Joo
Shin Hyun Bin as Yoo Ji Sun
Nam Ji Hyun as young Ji Sun
Choi Min Soo as Chun
Jun Kwang Ryul as Kim Gwang Taek
Park Joon Gyu as Huk Sa Mo
Park Won Sang as Jang Dae Pyo
Lee Jin Ah as Jang Mi
Oh Man Suk as Crown Prince Sado
Yoon Ji Min as Ji
Park Chul Min as In
Jun Gook Hwan as King Yeongjo
Geum Dan Bi as Queen Jungsoo

Synopsis
Set in the Joseon Dynasty during King Jeongjo’s reign, this martial-arts fusion sageuk is centered around the events involving Crown Prince Sado’s conspiracy. Warrior Baek Dong Soo was a real-life legend who created a martial arts guide in Joseon. His group who defends King Jeongjo is pitted against a mysterious organization of assassins who plot to kill the King.

General
Complete name                    : Warrior.Baek.Dong.Soo.E24.110920.HDTV.X264.720p-MoonChild.mp4
Format                           : MPEG-4
Format profile                   : Base Media
Codec ID                         : isom
File size                        : 1.40 GiB
Duration                         : 1h 5mn
Overall bit rate                 : 3 069 Kbps

Video
ID                               : 1
Format                           : AVC
Format/Info                      : Advanced Video Codec
Format profile                   : Main@L3.0
Format settings, CABAC           : Yes
Format settings, ReFrames        : 3 frames
Codec ID                         : avc1
Codec ID/Info                    : Advanced Video Coding
Duration                         : 1h 5mn
Bit rate mode                    : Variable
Bit rate                         : 2 968 Kbps
Width                            : 1 280 pixels
Height                           : 720 pixels
Display aspect ratio             : 16:9
Frame rate mode                  : Constant
Frame rate                       : 29.970 fps
Color space                      : YUV
Chroma subsampling               : 4:2:0
Bit depth                        : 8 bits
Scan type                        : Progressive
Bits/(Pixel*Frame)               : 0.107
Stream size                      : 1.35 GiB (97%)

Audio
ID                               : 2
Format                           : AAC
Format/Info                      : Advanced Audio Codec
Format profile                   : LC
Codec ID                         : 40
Duration                         : 1h 5mn
Bit rate mode                    : Variable
Bit rate                         : 96.0 Kbps
Channel(s)                       : 2 channels
Channel positions                : Front: L R
Sampling rate                    : 48.0 KHz
Compression mode                 : Lossy
Stream size                      : 44.8 MiB (3%)

IMDB No IMDB ID been added..
Category Korean TV 720p-1080p
Rating N/A
Size 1.40 GB
Show/Hide Files
4 files
AddDate 23/09/2011
Uploader ANONYMOUS
Speed 0 KB/sec
Down 340 times
peers seeds: 0, leechers: 0 = 0 peers
Who thanked
Report
Reseed


23/09/2011 06.29 pm





ADS