User Info

ADS

Torrent’s details
Name Once Upon A Time in Saengchori (2010) Complete Series
  You will need to Register or Login to download!
Info Hash da7706d9e99eca0526406df9bbef110e10a0d988
Description


http://wiki.d-addicts.com/Once_Upon_a_Time_in_Saengchori
http://asianwiki.com/Once_Upon_a_Time_in_Saengchori

Title: 원스 어폰 어 타임 인 생초리 / Once Upon a Time in Saengchori
Genre: Comedy, suspense, romance
Episodes: 20
Broadcast network: tvN
Broadcast period: 2010-Nov-05 to 2011-Mar-18
Air time: Friday 23:00
Subtitles: English softsubs

Synopsis
This drama revolves around a group of brokerage firm employees who are relocated to a quiet rural village, where both thrilling and bizarre events occur and romance bloom between the employees and residents. At the center of the many secrets surrounding Saengchori is a complicated murder mystery in which the employees find themselves unwittingly involved. However, there are some that prefer certain skeletons in the closet remain hidden, and will go to any lengths for this. Is the murderer someone from the quirky, country village of Saengchori, or could it be one of their own?

Cast
Ha Suk Jin as Jo Min Sung
Lee Young Eun as Yoo Eun Joo
Kim Dong Yoon as Han Ji Min

Kang Nam Gil as Lee Man Soo
Shin Dong Woo as Lee Man Soo (teen)
Jo Sang Ki as Choi Dal Gook
Jung Ji Ah as Park Min Young
Kim Kyung Bum (김경범) as Bong Jin Soo
Kim Hak Chul as Park Kyu
Bae Geu Rin as Park Bok Soon / Victoria
Nam Bo Ra as Oh Na Young
Go Ho Kyung as Hye Rin
Yoon Seo Hyun as Kim Sang Yoon
Woo Sang Jun (우상전) as village chief
Yoon Shi Yoon as Park Shi Yoon (cameo)
Ahn Sang Tae as overseas-trained costume designer (cameo)
Choi Daniel (cameo)


Production Company: Chorokbaem Media
Producer: Kim Byung Wook
Director: Kim Young Ki, Jo Chan Joo (조찬주)
Screenwriter: Lee Young Chul





Code
General
Unique ID                                : 43504405098539200469099155507403227842 (0x20BAA4C631B4B7557F34A5BA3E7F02C2)
Complete name                            : G:Asian DramasKoreanCompleteOnce Upon A Time in SaengchoriOnce Upon A Time in Saengchori.E01.mkv
Format                                   : Matroska
Format version                           : Version 2
File size                                : 148 MiB
Duration                                 : 45mn 17s
Overall bit rate mode                    : Variable
Overall bit rate                         : 457 Kbps
Writing application                      : HandBrake 4375svn
Writing library                          : libmkv 0.6.5

Video
ID                                       : 1
Format                                   : AVC
Format/Info                              : Advanced Video Codec
Format profile                           : High@L3.1
Format settings, CABAC                   : Yes
Format settings, ReFrames                : 8 frames
Codec ID                                 : V_MPEG4/ISO/AVC
Duration                                 : 45mn 17s
Bit rate                                 : 400 Kbps
Width                                    : 800 pixels
Height                                   : 448 pixels
Display aspect ratio                     : 16:9
Frame rate mode                          : Constant
Frame rate                               : 30.000 fps
Color space                              : YUV
Chroma subsampling                       : 4:2:0
Bit depth                                : 8 bits
Scan type                                : Progressive
Bits/(Pixel*Frame)                       : 0.037
Stream size                              : 130 MiB (88%)
Writing library                          : x264 core 119
Encoding settings                        : cabac=1 / ref=8 / deblock=1:1:1 / analyse=0x3:0x113 / me=umh / subme=10 / psy=1 / psy_rd=0.00:0.00 / mixed_ref=1 / me_range=16 / chroma_me=1 / trellis=2 / 8x8dct=1 / cqm=0 / deadzone=21,11 / fast_pskip=1 / chroma_qp_offset=0 / threads=3 / sliced_threads=0 / nr=0 / decimate=1 / interlaced=0 / bluray_compat=0 / constrained_intra=0 / bframes=5 / b_pyramid=2 / b_adapt=2 / b_bias=0 / direct=1 / weightb=1 / open_gop=0 / weightp=2 / keyint=300 / keyint_min=30 / scenecut=40 / intra_refresh=0 / rc_lookahead=40 / rc=2pass / mbtree=1 / bitrate=400 / ratetol=1.0 / qcomp=0.60 / qpmin=3 / qpmax=69 / qpstep=4 / cplxblur=20.0 / qblur=0.5 / ip_ratio=1.40 / aq=2:0.60
Language                                 : English
Default                                  : Yes
Forced                                   : No
Color primaries                          : BT.601 NTSC
Transfer characteristics                 : BT.709
Matrix coefficients                      : BT.601

Audio
ID                                       : 2
Format                                   : Vorbis
Format settings, Floor                   : 1
Codec ID                                 : A_VORBIS
Duration                                 : 45mn 17s
Bit rate mode                            : Variable
Bit rate                                 : 48.0 Kbps
Channel(s)                               : 1 channel
Sampling rate                            : 48.0 KHz
Compression mode                         : Lossy
Stream size                              : 15.5 MiB (10%)
Writing library                          : aoTuV 20110424 (UTC 2011-04-24)
Language                                 : Unknown
Default                                  : Yes
Forced                                   : No
Writing application                      : HandBrake

IMDB No IMDB ID been added..
Category Korean TV
Rating
Size 2.99 GB
Show/Hide Files
40 files
AddDate 05/03/2013
Uploader ANONYMOUS
Speed 0 KB/sec
Down 686 times
peers seeds: 5, leechers: 2 = 7 peers
Who thanked
Report
Reseed


16/04/2013 04.44 pm

thank you!!!!!!grin.gifgrin.gifgrin.gifgrin.gifgrin.gifgrin.gifgrin.gif
14/04/2013 09.20 am

Thank You
07/03/2013 12.26 pm


stuck at 60 percent for 12 hours, is there something wrong with the seeding ?

thanks for great drama's
05/03/2013 08.15 pm

Thank You




ADS