User Info

ADS

Torrent’s details
Name Bayaning Third World 2000 DVDRip XviD AC3-RiZAL
  You will need to Register or Login to download!
Info Hash d80c5648719c117439ef3646747606c82fb4e4a4
Description

Bayaning.Third.World.2000.DVDRip.XviD.AC3-RiZAL

General Information:

Complete name                            : Bayaning.Third.World.2000.DVDRip.XviD.AC3-RiZAL
Format                                   : AVI
Format/Info                              : Audio Video Interleave
File size                                : 698 MiB
Duration                                 : 1h 33mn
Overall bit rate                         : 1 044 Kbps
Language                                 : Tagalog | Filipino
Subs                                     : English Subs (if needed)
Source                                   : drlightbearer Many THANKS
Encoder                                  : akosipalos

iMDB:
http://www.imdb.com/title/tt0260731/

Video


ID                                       : 0
Format                                   : MPEG-4 Visual
Format profile                           : Advanced Simple@L5
Format settings, BVOP                    : 2
Format settings, QPel                    : No
Format settings, GMC                     : No warppoints
Format settings, Matrix                  : Default (H.263)
Codec ID                                 : XVID
Codec ID/Hint                            : XviD
Duration                                 : 1h 33mn
Bit rate                                 : 844 Kbps
Width                                    : 720 pixels
Height                                   : 544 pixels
Display aspect ratio                     : 4:3
Frame rate                               : 23.976 fps
Color space                              : YUV
Chroma subsampling                       : 4:2:0
Bit depth                                : 8 bits
Scan type                                : Progressive
Compression mode                         : Lossy
Bits/(Pixel*Frame)                       : 0.090
Stream size                              : 565 MiB (81%)
Writing library                          : XviD 1.2.1 (UTC 2008-12-04)

Audio

ID                                       : 1
Format                                   : AC-3
Format/Info                              : Audio Coding 3
Mode extension                           : CM (complete main)
Codec ID                                 : 2000
Duration                                 : 1h 33mn
Bit rate mode                            : Constant
Bit rate                                 : 192 Kbps
Channel(s)                               : 2 channels
Channel positions                        : Front: L R
Sampling rate                            : 48.0 KHz
Bit depth                                : 16 bits
Compression mode                         : Lossy
Stream size                              : 128 MiB (18%)
Alignment                                : Aligned on interleaves
Interleave, duration                     : 64 ms (1.53 video frames)
Interleave, preload duration             : 192 ms


Plot:

The untold love story of Jose Rizal and Josephine Bracken is finally revealed after more than 100 years.


Screens:







GREETZ:
RiZAL Team Release Crew | SANTi | RoCK | Ulap | rizal |  centserick2 | mannilim | musikera | PRESTiGE | LEGiTiMATE | LEGi0N & SpEnSeR a.k.a Faggot tongue.gif



Note: This torrent is seeded w/ my fast seedbox so enjoy and don't forget to SEED Till ya BLEED wink.gif
IMDB
IMDB Extra
More.Info
Category Philippines Movie
Rating N/A
Size 704.60 MB
Show/Hide Files
5 files
AddDate 07/02/2012
Uploader ANONYMOUS
Speed 0 KB/sec
Down 46 times
peers seeds: 0, leechers: 1 = 1 peers
Who thanked
Report
Reseed


No comments...




ADS