User Info

ADS

Torrent’s details
Name Punch.2011.DVDRip.XviD-BeFRee
  You will need to Register or Login to download!
Info Hash d12378c814b02ff7ef03e6fa30a1d88c75e1e7f3
Description


완득이 (Wan-deuk-i)
Votes : - | Rating : - | Sign up, Why ?
Directed by Lee Han (이한)
Screenplay by Kim Dong-woo (김동우)
•Drama
107min | Release date in South Korea : 2011/10/20

Subtitles : Eng, Kor

Synopsis
Based on a novel, this is a movie about a poor and rebellious Wandeugi, meeting an oddball teacher and growing up.
"Punch" is an acclaimed coming-of-age film based on the enormously popular novel by Kim Yeo-ryung and play produced by Kim Dong-soo. It’s a timely text presenting the possibilities of the One Source Multi Use (OSMU) products. 18 year old Wanduk and his family’s tale is portrayed with a jaunty, dramatic rhythm. Wandeuk’s father is afflicted with kyphosis—commonly known as being hunchback. His live-in uncle isn’t completely normal either. What’s more, his mother, who makes an appearance in his life out of the blue, is Filipino. All of them, however, are precious to Wandeuk. And so is his homeroom teacher, Dong-joo, who is every bit the troublemaker Wandeuk is. They are constantly bickering and fighting as though they are enemies, but become more inseparable than family. "Punch" begins firmly rooted in the coming-of-age genre, but turns into a family drama and a social drama dealing with such crucial issues as the generation gap, education, disability, and multi-culturalism. It does all this and imparts some valuable lessons while providing entertainment and inspiration. (JEON Chanil)

http://www.hancinema.net/korean_movie_Punch.php
http://www.asiandb.com/browse/movie_detail.php?code=7766

 General
   Format : AVI
   Format/Info : Audio Video Interleave
   File size : 1.37 GiB
   Duration : 1h 47mn
   Overall bit rate : 1 818 Kbps
   Writing application : VirtualDubMod 1.5.10.2 (build 2540/release)
   Writing library : VirtualDubMod build 2540/release
 Video #0
   ID : 0
   Format : MPEG-4 Visual
   Format profile : Advanced Simple@L5
   Format settings, BVOP : 2
   Format settings, QPel : No
   Format settings, GMC : No warppoints
   Format settings, Matrix : Default (H.263)
   Muxing mode : Packed bitstream
   Codec ID : XVID
   Codec ID/Hint : XviD
   Duration : 1h 47mn
   Bit rate : 1 361 Kbps
   Width : 640 pixels
   Height : 272 pixels
   Display aspect ratio : 2.35:1
   Frame rate : 23.976 fps
   Color space : YUV
   Chroma subsampling : 4:2:0
   Bit depth : 8 bits
   Scan type : Progressive
   Compression mode : Lossy
   Bits/(Pixel*Frame) : 0.326
   Stream size : 1.02 GiB (75%)
   Writing library : XviD 1.0.3 (UTC 2004-12-20)
 Audio #1
   ID : 1
   Format : AC-3
   Format/Info : Audio Coding 3
   Mode extension : CM (complete main)
   Codec ID : 2000
   Duration : 1h 47mn
   Bit rate mode : Constant
   Bit rate : 448 Kbps
   Channel(s) : 6 channels
   Channel positions : Front: L C R, Side: L R, LFE
   Sampling rate : 48.0 KHz
   Bit depth : 16 bits
   Compression mode : Lossy
   Stream size : 344 MiB (25%)
   Alignment : Split accross interleaves
   Interleave, duration : 42 ms (1.00 video frame)
   Interleave, preload duration : 500 ms


IMDB
IMDB Extra
More.Info
Category Korean Movie
Rating
Size 1.39 GB
Show/Hide Files
4 files
AddDate 07/03/2012
Uploader ANONYMOUS
Speed 0 KB/sec
Down 2771 times
peers seeds: 22, leechers: 1 = 23 peers
Who thanked
Report
Reseed


20/04/2013 07.01 am

Thnx grin.gif
14/09/2012 10.47 pm

ty
14/09/2012 10.44 pm

Reccomended For everyone. A wonderful Film.
01/08/2012 01.34 am

ty for that
02/05/2012 12.19 am

really funny film, loved the humour
18/04/2012 04.33 pm

Thank you so much smile1.gif
18/03/2012 02.44 pm

Thanks to the uploader............cheers! grin.gif
18/03/2012 08.21 am

cheers, enjoyable movie smile1.gif
09/03/2012 02.16 pm

yay. thank you for them subs!
08/03/2012 02.54 am

Nice. I've been wanting to watch this for awhile.
07/03/2012 10.09 pm

IMDB link http://www.imdb.com/title/tt2088012/
07/03/2012 03.16 pm

Domo arigato.
07/03/2012 01.27 pm

I was specting to see this movie with subt. thanks a lot!!!
07/03/2012 11.20 am

Thank you so much for the subtitle. Thank yousmile1.gif Thank you...
07/03/2012 11.07 am

wow,thanks a lot for the movie and for the subtitleangel.gif
07/03/2012 10.26 am

http://www.imdb.com/title/tt2088012/
07/03/2012 10.19 am

Thanks for srt subs!




ADS