User Info

ADS

Torrent’s details
Name Forbidden.Sex.2.Affair.2012.HDRip.XviD.720p-Cine21i
  You will need to Register or Login to download!
Info Hash d112258ddc5144bf4423c1f8e817b7d8936def59
Description Warning: Nudity | Sex



Title: Forbidden Sex 2 : Affair
Hangul: 금지된 섹스 2 : 불륜
Director: Lee Soong-hwan (이숭환)
Year: 2012
Genre: Drama | Erotic
Runtime: 1 hour 3 min.
Cast: 이숭환, 장예지, 한예슬, 민지근, 강민우
Country: South Korea
Language: Korean
Subtitles: None ATM

Synopsis
None found in english.

General
Complete name                  : Forbidden.Sex.2.Affair.2012.HDRip.XviD.720p-Cine21i.avi
Format                         : AVI
Format/Info                    : Audio Video Interleave
File size                      : 1.41 GiB
Duration                       : 1h 2mn
Overall bit rate               : 3 197 Kbps
Writing library                : VirtualDub-MPEG2 build 24586/release

Video
ID                             : 0
Format                         : MPEG-4 Visual
Format profile                 : Advanced Simple@L5
Format settings, BVOP          : 2
Format settings, QPel          : No
Format settings, GMC           : No warppoints
Format settings, Matrix        : Default (H.263)
Muxing mode                    : Packed bitstream
Codec ID                       : XVID
Codec ID/Hint                  : XviD
Duration                       : 1h 2mn
Bit rate                       : 2 993 Kbps
Width                          : 1 280 pixels
Height                         : 720 pixels
Display aspect ratio           : 16:9
Frame rate                     : 29.970 fps
Color space                    : YUV
Chroma subsampling             : 4:2:0
Bit depth                      : 8 bits
Scan type                      : Progressive
Compression mode               : Lossy
Bits/(Pixel*Frame)             : 0.108
Stream size                    : 1.32 GiB (94%)
Writing library                : XviD 1.2.0SMP

Audio
ID                             : 1
Format                         : MPEG Audio
Format version                 : Version 1
Format profile                 : Layer 3
Mode                           : Joint stereo
Codec ID                       : 55
Codec ID/Hint                  : MP3
Duration                       : 1h 2mn
Bit rate mode                  : Constant
Bit rate                       : 192 Kbps
Channel(s)                     : 2 channels
Sampling rate                  : 48.0 KHz
Compression mode               : Lossy
Stream size                    : 86.5 MiB (6%)
Alignment                      : Split accross interleaves
Interleave, duration           : 33 ms (1.00 video frame)
Interleave, preload duration   : 500 ms

IMDB No IMDB ID been added..
Category Korean - Erotica/+18
Rating
Size 1.41 GB
Show/Hide Files
3 files
AddDate 16/11/2012
Uploader ANONYMOUS
Speed 0 KB/sec
Down 3222 times
peers seeds: 14, leechers: 3 = 17 peers
Who thanked
Report
Reseed


21/11/2012 04.28 am

Around 14-16 min, did anyone notice the color of the bra changed color from red to white?
20/11/2012 04.31 pm

got it! thanks man! cool2.gif
17/11/2012 06.06 am

Not really. No real story and the actors are fugly as hell. But I doubt this is a A-movie or have a decent budget
17/11/2012 06.06 am

Not really. No real story and the actors are fugly as hell. But I doubt this is a A-movie or have a decent budget
16/11/2012 12.00 pm

how's the story? is it good? smile1.gif




ADS