User Info

ADS

Torrent’s details
Name Assassins.2013.DVDscr.x264.AC3-SmY
  You will need to Register or Login to download!
Info Hash d0e3649c7b2983ad271298a176acb3582bc78409
Description

Cast:Hung Yan Yan, Felix Wong, Eric Tsang, Max Mok, Ray Lui, Guo Tao, Gigi Leung, Ni Hong-Jie, Simon Yam,
Kara Hui, and Ti Lung
Language: Mandarin
subtitle:HC Chinese&English

7 Assassins is a new martial arts movie which is directed by Eric Tsang and Hung Yan Yan,

and also delivers a great cast which see Shaw brothers legends Kara Hui and Ti Lung back

on screen. From watching the trailer, i have to say it looks ok, you can see the wire work

right away and i am not sure if the money is a big budget, even with such a great cast.

But that aside, i shall be watching and hope to see a good movie.

Plot:
When social unrest plagues a Kingdom in ancient China, the Imperial Court collects

stockpiles of gold from local governments to expand the royal army. However, the gold is

robbed while in transport. In a desperate move to retrieve the stolen treasure, elite

royal guards are sent on a mission to go after the gold but soon find out they are not the

only ones in pursuit of it.

Format : Matroska
     Format version : Version 2
     File size : 1.46 GiB
     Duration : 1h 35mn
     Overall bit rate : 2 185 Kbps
     Encoded date : UTC 2013-06-15 15:48:09
     Writing application : mkvmerge v5.2.0 ('I can't explain') built on Dec 18 2011

18:12:03
     Writing library : libebml v1.2.3 + libmatroska v1.3.0
  Video #1
     ID : 1
     Format : AVC
     Format/Info : Advanced Video Codec
     Format profile : High@L3.1
     Format settings, CABAC : Yes
     Format settings, ReFrames : 4 frames
     Muxing mode : Header stripping
     Codec ID : V_MPEG4/ISO/AVC
     Duration : 1h 35mn
     Bit rate : 2 000 Kbps
     Width : 720 pixels
     Height : 286 pixels
     Display aspect ratio : 2.517
     Frame rate : 29.970 fps
     Color space : YUV
     Chroma subsampling : 4:2:0
     Bit depth : 8 bits
     Scan type : Progressive
     Bits/(Pixel*Frame) : 0.324
     Stream size : 1.30 GiB (89%)
     Writing library : x264 core 116 r2074 2641b9e
  Audio #2
     ID : 2
     Format : AC-3
     Format/Info : Audio Coding 3
     Mode extension : CM (complete main)
     Format settings, Endianness : Big
     Muxing mode : Header stripping
     Codec ID : A_AC3
     Duration : 1h 35mn
     Bit rate mode : Constant
     Bit rate : 192 Kbps
     Channel(s) : 2 channels
     Channel positions : Front: L R
     Sampling rate : 48.0 KHz
     Bit depth : 16 bits
     Compression mode : Lossy
     Stream size : 131 MiB (9%)
     Default : Yes
     Forced : No
IMDB No IMDB ID been added..
Category Hong Kong Movie
Rating
Size 1.46 GB
Show/Hide Files
1 file
AddDate 17/06/2013
Uploader ANONYMOUS
Speed 0 KB/sec
Down 2620 times
peers seeds: 17, leechers: 0 = 17 peers
Who thanked
Report
Reseed


27/06/2013 10.10 am

i need english subtitle for this movie.
18/06/2013 06.19 am

The correct title for this movie should be 7 Assassins
18/06/2013 02.25 am

@wulkyrie: Because they want to make money from the mainland Chinese market, where this copy probably leaked from.

@kthor: Many people incorrectly categorize all pre-Republic (before 1911) periods as "ancient China".
18/06/2013 01.45 am

Lucky I can understand both Mandarin and Cantonese smile1.gif

But I prefer to listen to Cantonese for this movie.


Cheers!
18/06/2013 12.22 am

Missed the top part where it says Language is Mandarin. Again, cannot understand why Hong Kong movie has mandarin dialogue.
18/06/2013 12.19 am

Can someone tell me if the language is Cantonese or Mandarin?
This is supposed to be a Hong Kong movie, but cannot understand why the subtitle is simplified Chinese.
17/06/2013 11.12 pm

My god the opposing forces at work here!
My loathing for Eric Tsang and Michale Wong, VS my Love for Felix Wong and Hung Yan Yan.
I wonder if I can edit the movie to take out all those horrible actors and still have enough of the movie left to watch?sleep.gif
It's going to take me a month to decide whether or not to watch it and make my eyes bleed from seeing/hearing those vile actors.

Thanks capper/uploader!
17/06/2013 06.28 pm

"Plot:
When social unrest plagues a Kingdom in ancient China"

hmmm i pretty sure i saw a modern early 20th century gun on the cover ... can that still be considered ancient china time?

17/06/2013 12.44 pm

That is quick
17/06/2013 11.21 am

thanks mate
17/06/2013 10.24 am

Thankssmile1.gif
17/06/2013 08.45 am

thank you nice to see ti lung back on screengrin.gif
17/06/2013 08.26 am

THX FOR THE UPL.grin.gif




ADS