User Info

ADS

Torrent’s details
Name Sunset at Chaopraya
  You will need to Register or Login to download!
Info Hash cfc8afa54578ca04d08ffe6a7bae9acbd189d503
Description Sunset at Chaopraya (1996) Khu Gam



http://www.imdb.com/title/tt0116764   rated 6.8
http://www.flixster.com/movie/khu-gam-sunset-at-chaopraya
                           
This film shows the hidden history of the Japanese occupation of Thailand in World War 2. This has been made 3 times in the past and this is the most recent version. The film was only available on a VHS tape and it is very hard to find with very few copies available anywhere in the world. The quality is fairly good. The film starts off in an old movie mode which is the director's idea apparently and not a fault of the encoding. It quickly changes into an older style color mode. It is a very dramatic story and shows, as in the sample, what the Thais thought of their occupiers. It is over 2 hours long.

At minute 45 there is a copyright warning (circa 1996) that lasts 10 seconds. It will start again after the 10 second warning and there are no more. Guess they had to tell us all once.

There are very well shot scenes in this and it shows the traditional values of Thais in those days who would have to crawl on their knees past their elder relatives in some cases when they were seated on the floor.

Furthermore:

"War destroys the loser, the winner, and everybody involved" -- this opening quote from the movie establishes the theme.

It's 1939 in Siam. The Japanese are threatening invasion and the Free Thai movement is gaining momentum. Angsumalin, the beautiful daughter of a military leader, says goodbye to her friend Vanus, who is going to England to study. She won't promise to marry him, but will give him an answer when he returns. The Japanese invade, and circumstances bring Angsumalin together with Kobori, an idealistic Japanese captain, who is also related to a powerful Japanese general. Although she despises Kobori, she agrees to marry him for political purposes to protect her father and the Free Thai movement. In 1944, Vanus returns as a resistance officer and the conflicting rivalries and emotions come to a head.

Sunset at Chaophraya.avi

Format                           : AVI
Format/Info                    : Audio Video Interleave
File size                          : 893 MiB
Duration                         : 2h 12mn
Overall bit rate                : 939 Kbps

Video
ID                                  : 0
Format                            : MPEG-4 Visual
Format profile                  : Simple@L1
Format settings, BVOP      : No
Format settings, QPel        : No
Format settings, GMC        : No warppoints
Format settings, Matrix      : Default (H.263)
Codec ID                         : DX50
Codec ID/Hint                   : DivX 5
Duration                           : 2h 12mn
Bit rate                             : 798 Kbps
Width                               : 700 pixels
Height                              : 466 pixels
Display aspect ratio           : 1.602
Frame rate                       : 25.000 fps
Resolution                        : 24 bits
Colorimetry                      : 4:2:0
Scan type                         : Progressive
Bits/(Pixel*Frame)             : 0.098
Stream size                      : 759 MiB (85%)
Writing library                   : Lavc52.0.0
Apllication                         : Handbrake (OSX)

Audio
ID                                    : 1
Format                              : MPEG Audio
Format version                  : Version 1
Format profile                    : Layer 3
Codec ID                          : 55
Codec ID/Hint                    : MP3
Duration                            : 2h 12mn
Bit rate mode                    : Constant
Bit rate                             : 128 Kbps
Channel(s)                        : 2 channels
Sampling rate                    : 48.0 KHz
Resolution                         : 16 bits
Stream size                      : 122 MiB (14%)
Alignment                         : Split accross interleaves
Interleave, duration           : 24 ms (0.60 video frame)
Interleave, preload duration: 373 ms
Language                           : Thai and Japanese
Subtitles                             : English hardcoded for both languages
IMDB
IMDB Extra
More.Info
Category Japanese Movie
Rating N/A
Size 904.54 MB
Show/Hide Files
3 files
AddDate 16/09/2009
Uploader ANONYMOUS
Speed 0 KB/sec
Down 99 times
peers seeds: 0, leechers: 1 = 1 peers
Who thanked
Report
Reseed


16/02/2013 04.34 am

Too bad I'm stuck at 80% sad.gif(. Please seed it. Thank you.
15/02/2013 12.59 pm

I watched this movie on youtube and I really love it. Somebody please seed it again so that others (including me) can enjoy a high quality version. Thank you so much!
06/01/2011 07.59 pm

hello from France smile1.gif
I had such a hard time to find this movie.
ty for sharing and god bless u cause this is gonna make my mum smile smile1.gifgrin.gif




ADS