User Info

ADS

Torrent’s details
Name Heartstrings.E02.110630.HDTV.X264.720p-HANrel
  You will need to Register or Login to download!
Info Hash cf9aecaa0d0b8d769410e7812060996f9eadff58
Description


http://wiki.d-addicts.com/You've_Fallen_for_Me

Details
Title: 넌 내게 반했어 / Neon Naege Banhaesseo
English title: Heartstrings
Previously known as: 페스티벌 / Festival
Genre: Romance, music
Episodes: 16
Broadcast network: MBC
Broadcast period: 2011-Jun-29 to 2011-Aug-18
Language: Korean
Subtitle: English (by DarkSmurf CTS)

Synopsis
Lee Shin is a university student majoring in modern music. He is also the vocalist and guitarist of the band "The Stupid." Shin is known for his good looks and strong passion for music, but in reality he is cold, lacks interest in anything unrelated to music and has neither dreams nor plans for the future. He initially likes Jung Yoon Soo, a dance professor at university, but this all changes when he meets Lee Kyu Won.
Lee Kyu Won is a bright and outgoing student who was born into a prestigious family and is majoring in traditional Korean instruments, especially the gayageum. Kyu Won's grandfather, Lee Dong Gun, is one of the top 3 traditional musicians of his age and his biggest wish is to see his granddaughter become a traditional music prodigy. Trying to live up to her grandfather's expectations, Kyu Won immerses herself in training and becomes a university student who knows nothing outside of her studies. As her friends are fans of "The Stupid", she was forced to go to the band's concert with them. There she saw Lee Shin performing live, and is immediately captivated by him.

Cast
Jung Yong Hwa as Lee Shin
Park Shin Hye as Lee Kyu Won
Song Chang Ui as Kim Suk Hyun
So Yi Hyun as Jung Yoon Soo
Woo Ri as Han Hee Joo
Kang Min Hyuk as Yeo Joon Hee
Lee Hyun Jin as Hyun Ki Young
Im Se Mi as Cha Bo Woon
Extended Cast
Lee Jung Hun as Im Tae Joon
Jung Kyung Ho as Goo Jung Eun
Jang Seo Won as Lee Soo Myung
Shin Goo as Lee Dong Jin
Sun Woo Jae Duk as Lee Sun Ki
Lee Il Hwa as Song Ji Young
Moon Ga Young as Lee Jung Hyun
Kim Sun Kyung

Production Credits
Production Company: JS PICTURES
Chief Producer: Choi Hong Mi
Producer: Lee Jin Suk, Kim Yang
Director: Pyo Min Soo
Screenwriter: Lee Myung Sook

General
Complete name                    : Heartstrings.E02.110630.HDTV.X264.720p-HANrel.avi
Format                           : AVI
Format/Info                      : Audio Video Interleave
File size                        : 1.55 GiB
Duration                         : 1h 3mn
Overall bit rate                 : 3 482 Kbps
Writing application              : VirtualDubMod 1.5.10.2 (build 2540/release)
Writing library                  : VirtualDubMod build 2540/release

Video
ID                               : 0
Format                           : AVC
Format/Info                      : Advanced Video Codec
Format profile                   : High@L5.1
Format settings, CABAC           : Yes
Format settings, ReFrames        : 2 frames
Codec ID                         : H264
Duration                         : 9s 943ms
Bit rate                         : 3 000 Kbps
Width                            : 1 280 pixels
Height                           : 720 pixels
Display aspect ratio             : 16:9
Frame rate                       : 29.970 fps
Color space                      : YUV
Chroma subsampling               : 4:2:0
Bit depth                        : 8 bits
Scan type                        : Progressive
Bits/(Pixel*Frame)               : 0.109
Stream size                      : 1.34 GiB (87%)
Writing library                  : x264 core 50 svn-569

Audio
ID                               : 1
Format                           : AC-3
Format/Info                      : Audio Coding 3
Mode extension                   : CM (complete main)
Codec ID                         : 2000
Duration                         : 1h 3mn
Bit rate mode                    : Constant
Bit rate                         : 448 Kbps
Channel(s)                       : 2 channels
Channel positions                : Front: L R
Sampling rate                    : 48.0 KHz
Bit depth                        : 16 bits
Compression mode                 : Lossy
Delay relative to video          : 18ms
Stream size                      : 204 MiB (13%)
Alignment                        : Split accross interleaves
Interleave, duration             : 33 ms (1.00 video frame)
Interleave, preload duration     : 500 ms

IMDB No IMDB ID been added..
Category Korean TV 720p-1080p
Rating
Size 1.55 GB
Show/Hide Files
2 files
AddDate 02/07/2011
Uploader ANONYMOUS
Speed 0 KB/sec
Down 701 times
peers seeds: 0, leechers: 0 = 0 peers
Who thanked
Report
Reseed


17/08/2011 12.42 am

this is the best seriar i'v ever seen sooo cool and romantic ^^
02/08/2011 12.10 am

Hi.. is it just me or the audio and video for this series doesn't sync? What am I gonna do? the voices are not one with the video. cry.gif
20/07/2011 10.43 pm

thanks for sharing wink.gif
03/07/2011 01.24 am

Thanks a lot! I can't wait for the next episode! laugh.gif




ADS