User Info

ADS

Torrent’s details
Name Sex Drive ( Pinoy CAT III )
  You will need to Register or Login to download!
Info Hash ceb71a3c44bd23c7b59bf46ebde75618679a535e
Description Warning : This movie contains strong sexual content.



Director          :Robert Quebral
Release Date  :2 April 2003  
Country         : Philipines
Genre            : Cat III, Comedy,Adventure.
Language       : Tagalog
Run time        : 88 mins
Starring         :  Antonio Aquitania, Ardi Aquino, Gwen Garci, Jay Garchitorena, Katya Santos,  
                       Mark  Lapid, Maui Taylor, Ogie Diaz, Pinky Amador, Wendell Ramos
Subtitles        : NO ENGLISH SUBS.[/color

IMBD link     : http://www.imdb.com/title/tt0362138/

PLOT:
Maui and Katya dare you to take the road trip of your life. Maui Taylor is Shiela, a sweet and innocent teenage model who manages to remain a virgin because of her fear of sexual penetration. Katya Santos is Mel, a fashion photographer with an unbridle appetite for sex. When these two meet, Shiela tells Mel about her recent break up. Mel then decides that they should follow they guy up north to Sagada in her yellow Wrangler jeep. Along the way, the fall into all sorts of misadventures involving a handsome stranger and a mysterious killer. Fasten your seatbelt... Sex Drive is one wild ride you shouldn't miss.



Format                           : DivX
Format/Info                      : Hack of AVI
File size                        : 753 MiB
Duration                         : 1h 29mn
Overall bit rate                 : 1 174 Kbps

Video
ID                               : 0
Format                           : MPEG-4 Visual
Format settings, BVOP            : Yes
Format settings, QPel            : No
Format settings, GMC             : No warppoints
Format settings, Matrix          : Default (H.263)
Muxing mode                      : Packed bitstream
Codec ID                         : DX50
Codec ID/Hint                    : DivX 5
Duration                         : 1h 29mn
Bit rate                         : 1 035 Kbps
Width                            : 720 pixels
Height                           : 480 pixels
Display aspect ratio             : 3:2
Frame rate                       : 29.970 fps
Standard                         : NTSC
Color space                      : YUV
Chroma subsampling               : 4:2:0
Bit depth                        : 8 bits
Scan type                        : Progressive
Bits/(Pixel*Frame)               : 0.100
Stream size                      : 664 MiB (88%)
Title                            : Video
Writing library                  : DivX 6.2.5 (UTC 2006-06-16)

Audio
ID                               : 1
Format                           : MPEG Audio
Format version                   : Version 1
Format profile                   : Layer 3
Codec ID                         : 55
Codec ID/Hint                    : MP3
Duration                         : 1h 29mn
Bit rate mode                    : Constant
Bit rate                         : 128 Kbps
Channel(s)                       : 2 channels
Sampling rate                    : 48.0 KHz
Stream size                      : 82.1 MiB (11%)
Alignment                        : Split accross interleaves
Interleave, duration             : 33 ms (1.00 video frame)
Interleave, preload duration     : 50 ms

[color=purple]Enjoy downloading and plz seed as lon as U can. Thankz thumbsup.gif
IMDB
IMDB Extra
More.Info
Category Philippines - Erotic/+18
Rating
Size 753.29 MB
Show/Hide Files
1 file
AddDate 17/06/2010
Uploader ANONYMOUS
Speed 0 KB/sec
Down 2059 times
peers seeds: 10, leechers: 0 = 10 peers
Who thanked
Report
Reseed


31/05/2012 10.41 pm

thanks uploader! grin.gif




ADS