User Info

ADS

Torrent’s details
Name Karak-Laluan Puaka
  You will need to Register or Login to download!
Info Hash cdee71a61e3dcd3dd11b40a5c5a16f4229b4091f
Description


Plot:
Four students are heading back to their college in Kuantan, after a night out in Kuala Lumpur, when they encounter massive traffic on the Karak highway. In an attempt to make it back in time for their classes in the morning, they decide to exit the highway and take an alternative route back to Kuantan via the old single carriageway trunk road.... not knowing that this decision would change their lives forever

General Info:
Cast: Shahir AF8, Sheera Aiyob, Along Eyzendy, Kilafairy dan Sidek Hussin
Directed: Yusry Abd Halim
Genre: Horror
Runtime: 1 Hour 22 minutes
Country: Malaysia
Language: Malay
Subtitles: English

Technical Info:

General
Format: AVI
Format/Info: Audio Video Interleave
File size: 699 MiB
Duration: 1h 22mn
Overall bit rate: 1 182 Kbps
Writing application: FairUse Wizard - http://fairusewizard.com
Writing library: The best and REALLY easy backup tool

Video
ID: 0
Format: AVC
Format/Info: Advanced Video Codec
Format profile: High@L5.1
Format settings, CABAC: Yes
Format settings, ReFrames: 3 frames
Codec ID: H264
Duration: 1h 22mn
Bit rate: 980 Kbps
Width: 720 pixels
Height: 512 pixels
Display aspect ratio: 1.406
Frame rate: 25.000 fps
Color space: YUV
Chroma subsampling: 4:2:0
Bit depth: 8 bits
Scan type: Progressive
Bits/(Pixel*Frame): 0.106
Stream size: 580 MiB (83%)
Writing library: x264 core 58 svn-736bm

Audio
ID: 1
Format: AC-3
Format/Info: Audio Coding 3
Mode extension: CM (complete main)
Codec ID: 2000
Duration: 1h 22mn
Bit rate mode: Constant
Bit rate: 192 Kbps
Channel(s): 2 channels
Channel positions: Front: L R
Sampling rate: 48.0 KHz
Bit depth: 16 bits
Compression mode: Lossy
Stream size: 114 MiB (16%)
Alignment: Split accross interleaves
Interleave, duration: 40 ms (1.00 video frame)
Interleave, preload duration: 500 ms

Snapshots:
IMDB No IMDB ID been added..
Category Other Asian Movies
Rating
Size 698.88 MB
Show/Hide Files
1 file
AddDate 19/01/2012
Uploader ANONYMOUS
Speed 0 KB/sec
Down 119 times
peers seeds: 1, leechers: 0 = 1 peers
Who thanked
Report
Reseed


20/01/2012 03.29 am

sucks!angry.gif




ADS