User Info

ADS

Torrent’s details
Name Aiyyaa 2012 HDTV Rip 720p x264 AC3
  You will need to Register or Login to download!
Info Hash cce2664664868bc63de2f337d2e12248f0a514ad
Description General
Complete name                  : Aiyyaa 2012 HDTV Rip 720p x264 AC3.mkv
Format                         : Matroska
Format version                 : Version 2
File size                      : 4.37 GiB
Duration                       : 2h 25mn
Overall bit rate mode          : Variable
Overall bit rate               : 4 289 Kbps
Encoded date                   : UTC 2012-11-12 14:26:10
Writing application            : mkvmerge v5.6.0 ('Kenya Kane') built on May 27 2012 16:44:04
Writing library                : libebml v1.2.3 + libmatroska v1.3.0

Video
ID                             : 1
Format                         : AVC
Format/Info                    : Advanced Video Codec
Format profile                 : High@L4.1
Format settings, CABAC         : Yes
Format settings, ReFrames      : 3 frames
Codec ID                       : V_MPEG4/ISO/AVC
Duration                       : 2h 25mn
Bit rate mode                  : Variable
Bit rate                       : 3 967 Kbps
Maximum bit rate               : 40.0 Mbps
Width                          : 1 280 pixels
Height                         : 544 pixels
Display aspect ratio           : 2.35:1
Frame rate mode                : Constant
Frame rate                     : 25.000 fps
Color space                    : YUV
Chroma subsampling             : 4:2:0
Bit depth                      : 8 bits
Scan type                      : Progressive
Bits/(Pixel*Frame)             : 0.228
Stream size                    : 3.96 GiB (91%)
Writing library                : x264 core 125 r2200 999b753
Language                       : English
Default                        : Yes
Forced                         : No

Audio
ID                             : 2
Format                         : AC-3
Format/Info                    : Audio Coding 3
Mode extension                 : CM (complete main)
Format settings, Endianness    : Big
Codec ID                       : A_AC3
Duration                       : 2h 25mn
Bit rate mode                  : Constant
Bit rate                       : 320 Kbps
Channel(s)                     : 2 channels
Channel positions              : Front: L R
Sampling rate                  : 48.0 KHz
Bit depth                      : 16 bits
Compression mode               : Lossy
Stream size                    : 334 MiB (7%)
Title                          : RijVneT [DDR]
Language                       : Hindi
Default                        : Yes
Forced                         : No

Aiyyaa is a Hindi rom-com filim written and directed by Sachin Kundalkar. The film is jointly produced by Anurag Kashyap and Viacom 18. The film stars Rani Mukerji and Prithviraj in the lead roles. This film is the debut Bollywood film of Malayalam actor Prithviraj Sukumaran. The trailer for the film was released on 6 September 2012. The movie was released on 12 October 2012.It was a below average hit at the box office, despite being one of the most hyped movies of 2012 and having high expectations

Plot

The story is about a Marathi girl Meenakshi (Rani Mukerji) falling in love with a Tamil artist Surya Prithviraj. She is a librarian at a college. She has five members in her family(including her): A wheelchair bound grandmother who is blind and has gold teeth, her father who smokes four cigarettes together, her mother (Nirmiti Sawant) who is obsessed with marriage, and her brother Nana (Amey Wagh) whose only love in life is dogs. To escape the craziness of her family, Meenakshi lives her life in dreams, and in her dreams the only thing she’s doing is dancing and enacting her favorite actresses: Madhuri, Sridevi, Juhi etc. Then there is Maina or "Gaga Bai", her colleague,Anita Date as the mentally challenged big-mouthed freak who dresses up in weird ensembles such as with ‘Crime Scene: Do Not Cross’ ribbons.

Meenakshi’s family are looking for a suitable groom but Meenakshi, who doesn’t believe in arranged marriages, is waiting for her prince and wants her dream wedding. That’s when Surya (Prithviraj) enters. Surya is an art student, and the moment Meenakshi looks at him she falls in love with his tanned skin and a mysterious fragrance emanating from him. By this time her family have found the ‘right guy’ Maadhav (Subodh Bhave) for her, and are rushing with her wedding. The rest of the film involves Madhav running around after Meenakshi, and Meenakshi following Surya.Nana gets engaged to Maina under bizarre circumstances when Meenakshi goes missing on her engagement date when she actually was following Surya and ends up in his fragrance sticks'(agarbatti) factory. Meenakshi learns that Surya's odor that she got enthralled to was actually because of his involvement in the agarbatti factory. In the end, Meenakshi eventually succeeds in winning over Surya's heart and they get engaged in a traditional Maharashtrian ceremony.

Directed by Sachin Kundalkar
Produced by Anurag Kashyap
Guneet Monga
Viacom 18
Written by Sachin Kundalkar
Starring Rani Mukerji
Prithviraj
Subodh Bhave
Music by Amit Trivedi
Cinematography Amalendu Choudhary
Editing by Abhijeet Deshpande
Studio Viacom 18
IBC Spotlight
Distributed by IBC Motion Pictures
Release date(s)

   12 October 2012

Country India
Language Hindi






IMDB
IMDB Extra
More.Info
Category Indian Movie
Rating
Size 4.37 GB
Show/Hide Files
1 file
AddDate 18/11/2012
Uploader ANONYMOUS
Speed 0 KB/sec
Down 88 times
peers seeds: 0, leechers: 0 = 0 peers
Who thanked
Report
Reseed


02/11/2013 06.38 pm

i've been looking forward to see this movie, finaly i have it complete, thanks for sharing.
28/02/2013 12.46 pm

Great movie
14/12/2012 09.26 am

Subtitulos en Inglés

http://www.podnapisi.net/en/aiyyaa-2012-subtitles-p2104866
27/11/2012 05.05 am

where can i get the eng sub?
26/11/2012 05.57 am

do this have english subtitles?! i wasn't sure from the description




ADS