User Info

ADS

Torrent’s details
Name School 2013 Complete + Special + Extras x264 720p - HEL
  You will need to Register or Login to download!
Info Hash c9235be90ab61f7862e2ad77dea07029e821eb97
Description




Details
Title: 학교 2013 / Hakgyo 2013
Also known as: 학교 5 (School 5)
Genre: School, drama, family
Episodes: 16+SP
Additional: 3 Alternate Openings + News Reports & Promotions about School 2013 (NOSUBS)
Broadcast network: KBS2
Broadcast period: 2012-Dec-03 to 2013-???-??
Air time: Monday & Tuesday 21:55
Related TV Shows: School 1 (KBS2, 1999), School 2 (KBS2, 1999) , School 3 (KBS2, 2000), School 4 (KBS2, 2001)
Subtitles: E01-16+Special - Dramafever (Thanks to kingofbeer)

Synopsis
When Nam Soon's life comes to a crossroads, the arrival of a rebellious transfer student complicates things more. A rivalry forms through misunderstandings, but the two might find that they're not as different as they thought.


Cast
Students
Park Se Young as Song Ha Kyung
Lee Jong Suk as Go Nam Soon
Kim Woo Bin as Park Heung Soo
Hyo Young as Lee Kang Joo
Kim Chang Hwan (김창환) as Han Young Woo
Kwak Jung Wook as Oh Jung Ho
Choi Chang Yub (최창엽) as Kim Min Ki
Jun Soo Jin (전수진)
Jung Yun Joo (정연주)
Da Ni (다니)
Teachers
Jang Na Ra as Jung In Jae
Choi Daniel as Kang Se Chan
Park Hae Mi
Lee Han Wie
Uhm Hyo Sup as Uhm Tae Woong
Oh Young Shil as Yoo Nam Hee
Others
Oh Ga Eun (오가은)
Yoon Joo Sang as Jo Bong Soo













Code
General

Format                                   : Matroska
Format version                           : Version 2
File size                                : 1.45 GiB
Duration                                 : 1h 5mn
Overall bit rate                         : 3 174 Kbps
Encoded date                             : UTC 2013-01-26 22:48:56
Writing application                      : mkvmerge v5.6.0 ('Kenya Kane') built on May 27 2012 16:44:04
Writing library                          : libebml v1.2.3 + libmatroska v1.3.0

Video
ID                                       : 1
Format                                   : AVC
Format/Info                              : Advanced Video Codec
Format profile                           : Main@L3.1
Format settings, CABAC                   : Yes
Format settings, ReFrames                : 5 frames
Muxing mode                              : Header stripping
Codec ID                                 : V_MPEG4/ISO/AVC
Duration                                 : 1h 5mn
Nominal bit rate                         : 2 389 Kbps
Width                                    : 1 280 pixels
Height                                   : 720 pixels
Display aspect ratio                     : 16:9
Frame rate mode                          : Constant
Frame rate                               : 29.970 fps
Original frame rate                      : 23.976 fps
Color space                              : YUV
Chroma subsampling                       : 4:2:0
Bit depth                                : 8 bits
Scan type                                : Progressive
Bits/(Pixel*Frame)                       : 0.086
Writing library                          : x264 core 129 r2230 1cffe9f
Encoding settings                        : cabac=1 / ref=5 / deblock=1:-1:-1 / analyse=0x1:0x111 / me=umh / subme=10 / psy=1 / psy_rd=1.00:0.00 / mixed_ref=1 / me_range=16 / chroma_me=1 / trellis=2 / 8x8dct=0 / cqm=0 / deadzone=21,11 / fast_pskip=0 / chroma_qp_offset=-2 / threads=12 / lookahead_threads=2 / sliced_threads=0 / nr=0 / decimate=0 / interlaced=0 / bluray_compat=0 / constrained_intra=0 / bframes=3 / b_pyramid=2 / b_adapt=2 / b_bias=0 / direct=3 / weightb=1 / open_gop=0 / weightp=2 / keyint=240 / keyint_min=23 / scenecut=40 / intra_refresh=0 / rc_lookahead=60 / rc=2pass / mbtree=1 / bitrate=2389 / ratetol=1.0 / qcomp=0.60 / qpmin=0 / qpmax=69 / qpstep=4 / cplxblur=20.0 / qblur=0.5 / ip_ratio=1.40 / aq=1:1.00
Language                                 : English
Default                                  : Yes
Forced                                   : No

Audio
ID                                       : 2
Format                                   : AAC
Format/Info                              : Advanced Audio Codec
Format profile                           : LC
Codec ID                                 : A_AAC
Duration                                 : 1h 5mn
Channel(s)                               : 2 channels
Channel positions                        : Front: L R
Sampling rate                            : 48.0 KHz
Compression mode                         : Lossy
Delay relative to video                  : 9ms
Default                                  : Yes
Forced                                   : No

Menu
00:00:00.054                             : en:00:00:00.054





Code
General

Format                                   : MPEG-4
Format profile                           : Base Media
Codec ID                                 : isom
File size                                : 1.45 GiB
Duration                                 : 1h 3mn
Overall bit rate mode                    : Variable
Overall bit rate                         : 3 296 Kbps
Encoded date                             : UTC 2013-01-22 11:09:15
Tagged date                              : UTC 2013-01-22 11:09:15

Video
ID                                       : 1
Format                                   : AVC
Format/Info                              : Advanced Video Codec
Format profile                           : Main@L3.1
Format settings, CABAC                   : Yes
Format settings, ReFrames                : 5 frames
Codec ID                                 : avc1
Codec ID/Info                            : Advanced Video Coding
Duration                                 : 1h 3mn
Bit rate                                 : 3 098 Kbps
Maximum bit rate                         : 17.3 Mbps
Width                                    : 1 280 pixels
Height                                   : 720 pixels
Display aspect ratio                     : 16:9
Frame rate mode                          : Constant
Frame rate                               : 29.970 fps
Color space                              : YUV
Chroma subsampling                       : 4:2:0
Bit depth                                : 8 bits
Scan type                                : Progressive
Bits/(Pixel*Frame)                       : 0.112
Stream size                              : 1.37 GiB (94%)
Writing library                          : x264 core 129 r2230 1cffe9f
Encoding settings                        : cabac=1 / ref=5 / deblock=1:-1:-1 / analyse=0x1:0x111 / me=umh / subme=10 / psy=1 / psy_rd=1.00:0.00 / mixed_ref=1 / me_range=16 / chroma_me=1 / trellis=2 / 8x8dct=0 / cqm=0 / deadzone=21,11 / fast_pskip=0 / chroma_qp_offset=-2 / threads=12 / lookahead_threads=2 / sliced_threads=0 / nr=0 / decimate=0 / interlaced=0 / bluray_compat=0 / constrained_intra=0 / bframes=3 / b_pyramid=2 / b_adapt=2 / b_bias=0 / direct=3 / weightb=1 / open_gop=0 / weightp=2 / keyint=300 / keyint_min=29 / scenecut=40 / intra_refresh=0 / rc_lookahead=60 / rc=2pass / mbtree=1 / bitrate=3098 / ratetol=1.0 / qcomp=0.60 / qpmin=0 / qpmax=69 / qpstep=4 / cplxblur=20.0 / qblur=0.5 / ip_ratio=1.40 / aq=1:1.00
Encoded date                             : UTC 2013-01-22 07:24:48
Tagged date                              : UTC 2013-01-22 11:09:50

Audio
ID                                       : 2
Format                                   : AAC
Format/Info                              : Advanced Audio Codec
Format profile                           : LC
Codec ID                                 : 40
Duration                                 : 1h 3mn
Bit rate mode                            : Variable
Bit rate                                 : 192 Kbps
Maximum bit rate                         : 237 Kbps
Channel(s)                               : 2 channels
Channel positions                        : Front: L R
Sampling rate                            : 48.0 KHz
Compression mode                         : Lossy
Delay relative to video                  : 67ms
Stream size                              : 86.6 MiB (6%)
Encoded date                             : UTC 2013-01-22 11:09:48
Tagged date                              : UTC 2013-01-22 11:09:50


IMDB
IMDB Extra
More.Info
Category Korean TV 720p-1080p
Rating
Size 25.74 GB
Show/Hide Files
40 files
AddDate 02/02/2013
Uploader ANONYMOUS
Speed 0 KB/sec
Down 354 times
peers seeds: 6, leechers: 2 = 8 peers
Who thanked
Report
Reseed


10/01/2014 06.40 am

Thank you so much.... really enjoyed this drama!! thumbsup.gif
22/12/2013 03.21 am

please keep seeding, it's very slow!! sad.gif
25/02/2013 02.08 pm

Guys is there a ghosting problem in the first 2 episodes that other releases have?
21/02/2013 10.43 pm

oh didn't know that ok i will pm me ya next time smile1.gif thanks for the show grin.gif
21/02/2013 03.26 am

I uploaded my copy of the subs , checked and they work perfectly fine.

I might have uploaded an earlier version ( the ones not in synch)

20/02/2013 03.18 am

Just noticed this. Thanks for feedback. I will check again when I get home.

Pls notify by pm next time so that I can rectify it quickly!
15/02/2013 08.05 pm

also the srt at special ep is broken i got another to,this drama was amazing grin.gif

Code
https://www.dropbox.com/s/o5iwtxztj13cti2/School.2013-Let%27s.Go.To.School.130129.HDTV.H264.720p-KOR.srt

15/02/2013 09.13 am

i found another sub for ep 14 i don't know if dropbox is allowed but this sub is ok..

Code
https://www.dropbox.com/sh/0c2pjknbxq5mt0j/yy7KXq69gR

15/02/2013 08.09 am

sub 14 have shorter delay 6-8sec well i can fix it with vlc but i think you should check this and fix it..
10/02/2013 06.43 pm

this drama is awesome ;d
05/02/2013 05.51 am

is this drama good? sleep.gif




ADS