User Info

ADS

Torrent’s details
Name Mama.2011.PROPER.HDVD.XviD-Numberone
  You will need to Register or Login to download!
Info Hash c915c854638294554af557a73b6f814a90d74d3e
Description



Motherhood is a popular subject for many filmmakers, including director Choi Ik-hwan, who is making his directorial debut with this omnibus film.
The film consists of three stories about mothers and their children.
The first story is about a mother (Uhm Jung-hwa) who devotes her life to taking care of her son (Lee Hyeong-seok), who suffers from a chronic disease. When the son, who can barely walk, realizes his mother has also fallen ill, he decides to care for her as she has done for him.
The second story depicts the troubled relationship between a mother and daughter. The mother (musical theater actress Jeon Soo-kyeong), the top soprano in the nation, is far from a typical devoted Korean mother and always wants to be pampered. Her daughter (Ryoo Hyeon-kyeong), a high school dropout whose experience has been the opposite of her mother’s, works as her manager. The two are always fighting and struggle to find a way to navigate their relationship.
The third episode centers upon a gangster (Yoo Hae-jin). When he hears that his mother (Kim Hae-sook) has been diagnosed with breast cancer, he strives to fulfill his mother’s wish to reunite with her first love before she dies.

Also Known As: 마마 (Ma-ma)
Directed by: Choi Ik-hwan (최익환)
Country: South Korea
Language: Korean
Subtitle: N/a
Year: 2011/06/01
Genre: Drama, Family

cast:
Uhm Jung-hwa
Kim Hae-sook
Yoo Hae-jin
Jeon Soo-kyeong
Ryoo Hyeon-kyeong
Lee Hyeong-seok

Format                           : AVI
Format/Info                      : Audio Video Interleave
File size                        : 1.37 GiB
Duration                         : 1h 50mn
Overall bit rate                 : 1 764 Kbps
Writing library                  : VirtualDubMod build 2366/release

Video
ID                               : 0
Format                           : MPEG-4 Visual
Format profile                   : Advanced Simple@L5
Format settings, BVOP            : 2
Format settings, QPel            : No
Format settings, GMC             : No warppoints
Format settings, Matrix          : Default (H.263)
Muxing mode                      : Packed bitstream
Codec ID                         : XVID
Codec ID/Hint                    : XviD
Duration                         : 1h 50mn
Bit rate                         : 1 499 Kbps
Width                            : 720 pixels
Height                           : 304 pixels
Display aspect ratio             : 2.35:1
Frame rate                       : 23.976 fps
Color space                      : YUV
Chroma subsampling               : 4:2:0
Bit depth                        : 8 bits
Scan type                        : Progressive
Compression mode                 : Lossy
Bits/(Pixel*Frame)               : 0.286
Stream size                      : 1.16 GiB (85%)
Writing library                  : XviD 61

Audio
ID                               : 1
Format                           : MPEG Audio
Format version                   : Version 1
Format profile                   : Layer 3
Mode                             : Joint stereo
Codec ID                         : 55
Codec ID/Hint                    : MP3
Duration                         : 1h 50mn
Bit rate mode                    : Constant
Bit rate                         : 256 Kbps
Channel(s)                       : 2 channels
Sampling rate                    : 48.0 KHz
Compression mode                 : Lossy
Delay relative to video          : 11ms
Stream size                      : 203 MiB (15%)
Alignment                        : Split accross interleaves
Interleave, duration             : 42 ms (1.00 video frame)
Interleave, preload duration     : 500 ms
Writing library                  : LAME3.97 (beta)


IMDB No IMDB ID been added..
Category Korean Movie
Rating
Size 1.37 GB
Show/Hide Files
1 file
AddDate 26/07/2011
Uploader ANONYMOUS
Speed 0 KB/sec
Down 103 times
peers seeds: 0, leechers: 0 = 0 peers
Who thanked
Report
Reseed


19/08/2011 05.25 am

Subs please? cry.gif
10/08/2011 06.25 am

any subs ?
07/08/2011 07.34 am

any subs??
26/07/2011 06.45 pm

Oh wow ..this might be pretty good! TYVMgrin.gif




ADS