User Info

ADS

Torrent’s details
Name Buzzer Beat (2009) 720p Complete Series + Special
  You will need to Register or Login to download!
Info Hash c6cde3ee5420df3779219ec0cb83a2b9ace91a39
Description

http://wiki.d-addicts.com/Buzzer_Beat
http://asianmediawiki.com/Buzzer_Beat
http://en.wikipedia.org/wiki/Buzzer_Beat
http://jdorama.com/drama.1425.htm

Title: ブザー・ビート
Title (English): Buzzer Beat
Tagline: 崖っぷちのヒーロー / Gakeppuchi no Hero
Format: Renzoku
Genre: Romance, sports
Episodes: 11
Viewership rating: 14.3 (Kanto)
Broadcast network: Fuji TV
Broadcast period: 2009-Jul-13 to 2009-Sep-21
Air time: Monday 21:00
Theme song: Ichibutozenbu by B'z
Language: Japanese
Country: Japan
Subtitles: English

Production Credits
Screenwriter: Omori Mika
Producer: Nakano Toshiyuki
Directors: Nagayama Kozo (ep1-2,5-6,9,11), Nishiura Masaki (ep3-4,7-8,10)
Music: B.B.O.S.T feat. Hinata Toshifumi, Sahashi Yoshiyuki (佐橋佳幸),
Nobuchika Teruyuki (延近輝之), Makiyama Junko (牧山純子)

Main Cast
Yamashita Tomohisa as Kamiya Naoki (SG)
Mizobata Junpei as Hatano Shuji (SG/G)
Kaneko Nobuaki (金子ノブアキ) as Yoyogi Ren (F/SG)
Aoki Munetaka as Moriguchi Shuto (PF/C)
Nagai Masaru as Utsunomiya Toru (team captain/PG)
Ito Hideaki as Kawasaki Tomoya (head coach)
Kitagawa Keiko as Shirakawa Riko (violin)
Kanjiya Shihori as Ebina Mai (flute)
Aibu Saki as Nanami Natsuki

Recognitions
62nd Television Drama Academy Awards: Best Drama
62nd Television Drama Academy Awards: Best Scriptwriter - Omori Mika
62nd Television Drama Academy Awards: Best Theme song
13th Nikkan Sports Drama Grand Prix (Summer 2009): Best Drama
13th Nikkan Sports Drama Grand Prix (Summer 2009): Best Actor - Yamashita Tomohisa
13th Nikkan Sports Drama Grand Prix (Summer 2009): Best Actress - Kitagawa Keiko
13th Nikkan Sports Drama Grand Prix (Summer 2009): Best Supporting Actress - Kanjiya Shihori


Synopsis
“Love makes people strong”... This is a love story of a timid basketball player and a strong-willed violinist reaching for their dreams. Naoki had had an impressive basketball career in his college days. Yet, his weakness towards pressure had been keeping him from playing up to his full potential since turning professional. On the other hand, Riko is a freshly graduated violinist, who had not been able to get opportunity to turn professional. One day, Riko encounters Naoki practicing in a park behind her house. Riko cheers up Naoki by telling him that she will be his first fan.

General
Complete name                    : Buzzer Beat ep01 (1280x720 XviD 1.2).avi
Format                           : AVI
Format/Info                      : Audio Video Interleave
Format profile                   : OpenDML
File size                        : 2.55 GiB
Duration                         : 1h 10mn
Overall bit rate                 : 5 213 Kbps
Writing application              : VirtualDubMod 1.5.10.2 (build 2540/release)
Writing library                  : VirtualDubMod build 2540/release

Video
ID                               : 0
Format                           : MPEG-4 Visual
Format profile                   : Advanced Simple@L5
Format settings, BVOP            : Yes
Format settings, QPel            : No
Format settings, GMC             : No warppoints
Format settings, Matrix          : Default (MPEG)
Muxing mode                      : Packed bitstream
Codec ID                         : XVID
Codec ID/Hint                    : XviD
Duration                         : 1h 10mn
Bit rate                         : 5 008 Kbps
Width                            : 1 280 pixels
Height                           : 720 pixels
Display aspect ratio             : 16:9
Frame rate                       : 29.970 fps
Color space                      : YUV
Chroma subsampling               : 4:2:0
Bit depth                        : 8 bits
Scan type                        : Progressive
Bits/(Pixel*Frame)               : 0.181
Stream size                      : 2.45 GiB (96%)
Writing library                  : XviD 1.2.1 (UTC 2008-12-04)

Audio
ID                               : 1
Format                           : MPEG Audio
Format version                   : Version 1
Format profile                   : Layer 3
Mode                             : Joint stereo
Codec ID                         : 55
Codec ID/Hint                    : MP3
Duration                         : 1h 10mn
Bit rate mode                    : Constant
Bit rate                         : 192 Kbps
Channel(s)                       : 2 channels
Sampling rate                    : 48.0 KHz
Stream size                      : 96.2 MiB (4%)
Alignment                        : Split accross interleaves
Interleave, duration             : 33 ms (1.00 video frame)
Interleave, preload duration     : 500 ms



IMDB
IMDB Extra
More.Info
Category Japanese TV 720p-1080p
Rating
Size 17.12 GB
Show/Hide Files
25 files
AddDate 30/01/2011
Uploader ANONYMOUS
Speed 0 KB/sec
Down 834 times
peers seeds: 8, leechers: 3 = 11 peers
Who thanked
Report
Reseed


24/11/2013 05.35 am

Thank you so much wub.gifwub.gifwub.gif
02/07/2013 09.49 pm

Thanks! smile1.gif
20/06/2012 02.46 am

Awesome drama. Thank you very much.wink.gif
15/05/2011 03.36 am

anybody please tell me how to download that videos?cry.gif
10/05/2011 01.02 pm

thx! smile1.gif
17/02/2011 11.57 pm

Awesome drama! Thanks! I ordered the DVD already from eBay - worth the money.
07/02/2011 06.18 pm

Best thing in this dorama is the theme song by far.. the dorama was decent...




ADS