User Info

ADS

Torrent’s details
Name SNSD @ Hello Counsellor E106 720p ENG SUBBED
  You will need to Register or Login to download!
Info Hash c666cbf75ccafb339fced6fd93739ae61a1cb015
Description

Guests SNSD

Synopsis

"Hello Counselor" is a talk show with an emphasis on people and their stories. From stories about the daily lives of regular people regardless of their age or gender to concerns that are too embarrassing to reveal! Our program will bring laughter and move your heart. The purpose of this program is to help take down communication barriers by sharing stories about life. Comedians Shin Dongyeop, Jeong Chanwu, Kim Taegyun, and Lee Yeongja are the hosts of this program with various special guests appearing on the show weekly.

Thanks to:
Kshownow for subbing




Code
General

Format                                   : Matroska
Format version                           : Version 2
File size                                : 926 MiB
Duration                                 : 1h 15mn
Overall bit rate                         : 1 714 Kbps
Encoded date                             : UTC 2013-01-17 16:24:49
Writing application                      : mkvmerge v5.8.0 ('No Sleep / Pillow') built on Sep  2 2012 15:37:04
Writing library                          : libebml v1.2.3 + libmatroska v1.3.0

Video
ID                                       : 1
Format                                   : AVC
Format/Info                              : Advanced Video Codec
Format profile                           : High@L4.1
Format settings, CABAC                   : Yes
Format settings, ReFrames                : 4 frames
Codec ID                                 : V_MPEG4/ISO/AVC
Duration                                 : 1h 15mn
Bit rate                                 : 1 488 Kbps
Width                                    : 1 280 pixels
Height                                   : 720 pixels
Display aspect ratio                     : 16:9
Frame rate mode                          : Constant
Frame rate                               : 29.970 fps
Color space                              : YUV
Chroma subsampling                       : 4:2:0
Bit depth                                : 8 bits
Scan type                                : Progressive
Bits/(Pixel*Frame)                       : 0.054
Stream size                              : 804 MiB (87%)
Writing library                          : x264 core 129 r2230 1cffe9f
Encoding settings                        : cabac=1 / ref=3 / deblock=1:0:0 / analyse=0x3:0x113 / me=hex / subme=7 / psy=1 / psy_rd=1.00:0.00 / mixed_ref=1 / me_range=16 / chroma_me=1 / trellis=1 / 8x8dct=1 / cqm=0 / deadzone=21,11 / fast_pskip=1 / chroma_qp_offset=-2 / threads=6 / lookahead_threads=1 / sliced_threads=0 / nr=0 / decimate=1 / interlaced=0 / bluray_compat=0 / constrained_intra=0 / bframes=3 / b_pyramid=2 / b_adapt=1 / b_bias=0 / direct=1 / weightb=1 / open_gop=0 / weightp=2 / keyint=300 / keyint_min=29 / scenecut=40 / intra_refresh=0 / rc_lookahead=40 / rc=crf / mbtree=1 / crf=28.0 / qcomp=0.60 / qpmin=0 / qpmax=69 / qpstep=4 / ip_ratio=1.40 / aq=1:1.00
Default                                  : Yes
Forced                                   : No

Audio
ID                                       : 2
Format                                   : AC-3
Format/Info                              : Audio Coding 3
Mode extension                           : CM (complete main)
Format settings, Endianness              : Big
Codec ID                                 : A_AC3
Duration                                 : 1h 15mn
Bit rate mode                            : Constant
Bit rate                                 : 192 Kbps
Channel(s)                               : 2 channels
Channel positions                        : Front: L R
Sampling rate                            : 48.0 KHz
Bit depth                                : 16 bits
Compression mode                         : Lossy
Stream size                              : 104 MiB (11%)
Default                                  : Yes
Forced                                   : No


IMDB No IMDB ID been added..
Category Korean TV 720p-1080p
Rating
Size 926.12 MB
Show/Hide Files
1 file
AddDate 18/01/2013
Uploader ANONYMOUS
Speed 0 KB/sec
Down 854 times
peers seeds: 9, leechers: 0 = 9 peers
Who thanked
Report
Reseed


30/09/2013 12.52 am

Thank you so much for the upload!
20/03/2013 09.45 pm

thanx for uploading the eng subbed version! grin.gifgrin.gifgrin.gifgrin.gifgrin.gif
04/03/2013 07.30 am

awesome!smile1.gif
22/02/2013 12.43 pm

Thanks a bunch, buddy! Awesome upload! strongbench.gif
22/01/2013 09.56 am

Awesome, thxs smile1.gif
Redhead Sunny! DAEBAK!
20/01/2013 01.53 pm

Thanks!!
19/01/2013 04.06 am

Thanks very much smile1.gif




ADS