User Info

ADS

Torrent’s details
Name Ad Genius Lee Tae Baek (2013) Complete XVID KOR
  You will need to Register or Login to download!
Info Hash c51f7c3c83191ad5bb70b7395247dfa33659927d
Description

Details

Title: 광고천재 이태백 / Gwanggocheonjae Lee Tae Baek
Also known as: Advertisement Genius, Lee Tae Baek / Advertising Genius Lee Tae Baek
Genre: Drama, comedy, romance
Episodes: 16Q
Broadcast network: KBS2
Broadcast period: 2013-Feb-04 to 2013-Mar-26
Air time: Monday & Tuesday 22:00
Original Soundtrack: Ad Genius Lee Tae Baek OST
Subtitles by VIKI will be added later

Synopsis

Drama series depicts the lives and love of people working in the advertisement industry.
Lee Tae-Baek (Jin Goo) is extremely talented, but due to his poor resume goes through difficulties as he attempts to succeed in the advertising world.

Cast

Main Cast
Jin Goo as Lee Tae Baek
Park Ha Sun as Baek Ji Yoon
Jo Hyun Jae as Eddie Kang
Han Chae Young as Go Ah Ri

Plot

Drama series depicts the lives and love of people working in the advertisement industry.
Lee Tae-Baek (Jin Goo) is extremely talented, but due to his poor resume goes through difficulties as he attempts to succeed in the advertising world.




Code
Video
ID                                       : 0
Format                                   : MPEG-4 Visual
Format profile                           : Advanced Simple@L5
Format settings, BVOP                    : No
Format settings, QPel                    : No
Format settings, GMC                     : No warppoints
Format settings, Matrix                  : Default (MPEG)
Codec ID                                 : XVID
Codec ID/Hint                            : XviD
Duration                                 : 1h 6mn
Bit rate                                 : 1 391 Kbps
Width                                    : 624 pixels
Height                                   : 352 pixels
Display aspect ratio                     : 16:9
Frame rate                               : 29.970 fps
Color space                              : YUV
Chroma subsampling                       : 4:2:0
Bit depth                                : 8 bits
Scan type                                : Progressive
Compression mode                         : Lossy
Bits/(Pixel*Frame)                       : 0.211
Stream size                              : 660 MiB (87%)
Writing library                          : XviD 1.2.1 (UTC 2008-12-04)

Audio
ID                                       : 1
Format                                   : MPEG Audio
Format version                           : Version 1
Format profile                           : Layer 3
Mode                                     : Joint stereo
Mode extension                           : MS Stereo
Codec ID                                 : 55
Codec ID/Hint                            : MP3
Duration                                 : 1h 6mn
Bit rate mode                            : Constant
Bit rate                                 : 128 Kbps
Channel(s)                               : 2 channels
Sampling rate                            : 48.0 KHz
Compression mode                         : Lossy
Stream size                              : 60.8 MiB (8%)
Alignment                                : Aligned on interleaves
Writing library                          : LAME3.98.2
Language                                 : un

IMDB No IMDB ID been added..
Category Korean TV
Rating N/A
Size 12.11 GB
Show/Hide Files
16 files
AddDate 26/03/2013
Uploader ANONYMOUS
Speed 0 KB/sec
Down 95 times
peers seeds: 1, leechers: 0 = 1 peers
Who thanked
Report
Reseed


01/04/2013 03.53 pm

Thank you King Of beer! You are awesome!

Also, thank you for Viki revised subtitles!
26/03/2013 03.54 pm

Thanks for this. Now to wait subs.
26/03/2013 03.27 pm

Thank you very much King!!




ADS