User Info

ADS

Torrent’s details
Name Sekirei Dual Audio Complete 720p season 1 & 2 (UNCENSORED)
  You will need to Register or Login to download!
Info Hash c19c0192a3615db8cce1a4161ffac350592333a0
Description Japanese Anime: HD: English Dub.
Season 1 Uncensored


Minato Sahashi is extremely intelligent, yet due to his inability to cope under pressure has failed the college entrance exam twice. As a result he has been branded an idiot and loser by many. One day after talking to his yet again disappointed mother he comes into contact with a girl named Musubi who was under attack. The girl runs but takes him with her and soon finds that Minato, while unknown to him, is an Ashikabi, one of the mysterious set of masters that have the genetic trait that can become partners with some of the 108 cute girls, buxom women, and bish┼Źnen called "Sekirei". The reason for the partnership allows the Sekirei to use all their power to win in the competition held by the mysterious MBI corporation.




Media Info:
General
Unique ID                                : 320853111904989227847988355090355670795 (0xF1620FC4CE3A203437B9C89111554F0B)
Complete name                            : D:Sekirei Dual Audio Complete 720p season 1 and 2 (UNCENSOREDSekirei Season 1Sekirei Ep 01.mkv
Format                                   : Matroska
Format version                           : Version 2
File size                                : 119 MiB
Duration                                 : 23mn 38s
Overall bit rate mode                    : Variable
Overall bit rate                         : 704 Kbps
Writing application                      : HandBrake 4375svn
Writing library                          : libmkv 0.6.5

Video
ID                                       : 1
Format                                   : AVC
Format/Info                              : Advanced Video Codec
Format profile                           : High@L4.0
Format settings, CABAC                   : Yes
Format settings, ReFrames                : 8 frames
Codec ID                                 : V_MPEG4/ISO/AVC
Duration                                 : 23mn 38s
Bit rate                                 : 600 Kbps
Width                                    : 1 280 pixels
Height                                   : 720 pixels
Display aspect ratio                     : 16:9
Frame rate mode                          : Variable
Frame rate                               : 29.970 fps
Color space                              : YUV
Chroma subsampling                       : 4:2:0
Bit depth                                : 8 bits
Scan type                                : Progressive
Bits/(Pixel*Frame)                       : 0.022
Stream size                              : 100 MiB (84%)
Writing library                          : x264 core 119
Encoding settings                        : cabac=1 / ref=8 / deblock=1:1:1 / analyse=0x3:0x113 / me=umh / subme=10 / psy=1 / psy_rd=0.00:0.00 / mixed_ref=1 / me_range=16 / chroma_me=1 / trellis=2 / 8x8dct=1 / cqm=0 / deadzone=21,11 / fast_pskip=1 / chroma_qp_offset=0 / threads=6 / sliced_threads=0 / nr=0 / decimate=1 / interlaced=0 / bluray_compat=0 / constrained_intra=0 / bframes=5 / b_pyramid=2 / b_adapt=2 / b_bias=0 / direct=1 / weightb=1 / open_gop=0 / weightp=2 / keyint=300 / keyint_min=30 / scenecut=40 / intra_refresh=0 / rc_lookahead=40 / rc=2pass / mbtree=1 / bitrate=600 / ratetol=1.0 / qcomp=0.60 / qpmin=3 / qpmax=69 / qpstep=4 / cplxblur=20.0 / qblur=0.5 / ip_ratio=1.40 / aq=2:0.60
Language                                 : English
Default                                  : Yes
Forced                                   : No
Color primaries                          : BT.709-5, BT.1361, IEC 61966-2-4, SMPTE RP177
Transfer characteristics                 : BT.709-5, BT.1361
Matrix coefficients                      : BT.709-5, BT.1361, IEC 61966-2-4 709, SMPTE RP177

Audio #1
ID                                       : 2
Format                                   : Vorbis
Format settings, Floor                   : 1
Codec ID                                 : A_VORBIS
Duration                                 : 23mn 38s
Bit rate mode                            : Variable
Bit rate                                 : 48.0 Kbps
Channel(s)                               : 1 channel
Sampling rate                            : 48.0 KHz
Compression mode                         : Lossy
Stream size                              : 8.11 MiB (7%)
Writing library                          : aoTuV 20110424 (UTC 2011-04-24)
Language                                 : English
Default                                  : Yes
Forced                                   : No
Writing application                      : HandBrake

Audio #2
ID                                       : 3
Format                                   : Vorbis
Format settings, Floor                   : 1
Codec ID                                 : A_VORBIS
Duration                                 : 23mn 38s
Bit rate mode                            : Variable
Bit rate                                 : 48.0 Kbps
Channel(s)                               : 1 channel
Sampling rate                            : 48.0 KHz
Compression mode                         : Lossy
Stream size                              : 8.11 MiB (7%)
Writing library                          : aoTuV 20110424 (UTC 2011-04-24)
Language                                 : Japanese
Default                                  : No
Forced                                   : No
Writing application                      : HandBrake

Text
ID                                       : 4
Format                                   : SSA
Codec ID                                 : S_TEXT/SSA
Codec ID/Info                            : Sub Station Alpha
Compression mode                         : Lossless
Language                                 : English
Default                                  : Yes
Forced                                   : No


Season 2 Uncensored



The battle to find the supreme Sekirei continues. Still some of the fighters and their masters refuse to participate in the battle since losing it means to lose the Sekirei forever, and many of them actually care about their partners, while others just use them as tools. A storm is rising on the horizon, a bigger threat approaches the city and it's about to bring pain and suffering to those who love and care for their Sekireis.



Media Info:
General
Unique ID                                : 77125600078759801168642257282734469173 (0x3A05D9AB19FC5F2F5A48EF6AFB0BB035)
Complete name                            : D:Sekirei Dual Audio Complete 720p season 1 and 2 (UNCENSOREDSekirei Season 2Sekirei Ep 01.mkv
Format                                   : Matroska
Format version                           : Version 2
File size                                : 122 MiB
Duration                                 : 23mn 38s
Overall bit rate mode                    : Variable
Overall bit rate                         : 723 Kbps
Writing application                      : HandBrake 4375svn
Writing library                          : libmkv 0.6.5
Attachment                               : Yes / Yes / Yes / Yes / Yes / Yes / Yes / Yes / Yes

Video
ID                                       : 1
Format                                   : AVC
Format/Info                              : Advanced Video Codec
Format profile                           : High@L4.0
Format settings, CABAC                   : Yes
Format settings, ReFrames                : 8 frames
Codec ID                                 : V_MPEG4/ISO/AVC
Duration                                 : 23mn 38s
Bit rate                                 : 600 Kbps
Width                                    : 1 280 pixels
Height                                   : 720 pixels
Display aspect ratio                     : 16:9
Frame rate mode                          : Variable
Frame rate                               : 23.976 fps
Color space                              : YUV
Chroma subsampling                       : 4:2:0
Bit depth                                : 8 bits
Scan type                                : Progressive
Bits/(Pixel*Frame)                       : 0.027
Stream size                              : 103 MiB (85%)
Writing library                          : x264 core 119
Encoding settings                        : cabac=1 / ref=8 / deblock=1:1:1 / analyse=0x3:0x113 / me=umh / subme=10 / psy=1 / psy_rd=0.00:0.00 / mixed_ref=1 / me_range=16 / chroma_me=1 / trellis=2 / 8x8dct=1 / cqm=0 / deadzone=21,11 / fast_pskip=1 / chroma_qp_offset=0 / threads=6 / sliced_threads=0 / nr=0 / decimate=1 / interlaced=0 / bluray_compat=0 / constrained_intra=0 / bframes=5 / b_pyramid=2 / b_adapt=2 / b_bias=0 / direct=1 / weightb=1 / open_gop=0 / weightp=2 / keyint=240 / keyint_min=24 / scenecut=40 / intra_refresh=0 / rc_lookahead=40 / rc=2pass / mbtree=1 / bitrate=600 / ratetol=1.0 / qcomp=0.60 / qpmin=3 / qpmax=69 / qpstep=4 / cplxblur=20.0 / qblur=0.5 / ip_ratio=1.40 / aq=2:0.60
Language                                 : English
Default                                  : Yes
Forced                                   : No
Color primaries                          : BT.709-5, BT.1361, IEC 61966-2-4, SMPTE RP177
Transfer characteristics                 : BT.709-5, BT.1361
Matrix coefficients                      : BT.709-5, BT.1361, IEC 61966-2-4 709, SMPTE RP177

Audio #1
ID                                       : 2
Format                                   : Vorbis
Format settings, Floor                   : 1
Codec ID                                 : A_VORBIS
Duration                                 : 23mn 38s
Bit rate mode                            : Variable
Bit rate                                 : 48.0 Kbps
Channel(s)                               : 1 channel
Sampling rate                            : 48.0 KHz
Compression mode                         : Lossy
Stream size                              : 8.11 MiB (7%)
Writing library                          : aoTuV 20110424 (UTC 2011-04-24)
Language                                 : Japanese
Default                                  : Yes
Forced                                   : No
Writing application                      : HandBrake

Audio #2
ID                                       : 3
Format                                   : Vorbis
Format settings, Floor                   : 1
Codec ID                                 : A_VORBIS
Duration                                 : 23mn 38s
Bit rate mode                            : Variable
Bit rate                                 : 48.0 Kbps
Channel(s)                               : 1 channel
Sampling rate                            : 48.0 KHz
Compression mode                         : Lossy
Stream size                              : 8.11 MiB (7%)
Writing library                          : aoTuV 20110424 (UTC 2011-04-24)
Language                                 : Japanese
Default                                  : No
Forced                                   : No
Writing application                      : HandBrake

Text #1
ID                                       : 4
Format                                   : SSA
Codec ID                                 : S_TEXT/SSA
Codec ID/Info                            : Sub Station Alpha
Compression mode                         : Lossless
Language                                 : English
Default                                  : Yes
Forced                                   : No

Text #2
ID                                       : 5
Format                                   : SSA
Codec ID                                 : S_TEXT/SSA
Codec ID/Info                            : Sub Station Alpha
Compression mode                         : Lossless
Language                                 : English
Default                                  : No
Forced                                   : No





Please enjoy! and im sorry the last time I uploaded it with no screenshot.
please comment me if there is a problem thank you smile1.gif
IMDB
IMDB Extra
More.Info
Category Anime TV 720p-1080p
Rating
Size 3.18 GB
Show/Hide Files
27 files
AddDate 18/05/2012
Uploader ANONYMOUS
Speed 0 KB/sec
Down 337 times
peers seeds: 3, leechers: 0 = 3 peers
Who thanked
Report
Reseed


29/08/2012 01.08 am

thanx uploader....thumbsup.gifthumbsup.gifthumbsup.gifthumbsup.gif
17/08/2012 12.51 pm

Cool upload, great quality!  Thanks.grin.gif
09/07/2012 09.15 pm

Thank you For great uploadgrin.gif
05/06/2012 04.17 pm

Why must people upload awesome copies when I have already downloaded a shit copy? Very well, challenge accepted, will redownload for the sake of AWESOMENESS! cool2.gif
20/05/2012 02.58 am

Edit: NVM..... computer glitch, the subs are there tongue.gif
20/05/2012 02.38 am

Is there no english subs for this? The screen shots show subs but when playing I don't see any....




ADS