User Info

ADS

Torrent’s details
Name Kru Bann-Nok : Ban Nonghi Yai (2010)
  You will need to Register or Login to download!
Info Hash c12fa4a916496bd9adce9ee8252a3a7299514236
Description
 


DETAILS:

Directed by: Surasee Patham
Starring: Petthai Wongkumlao, Pichet Kongkarn, Fonfa Patham, Asongkai Saengtam, Panna Rittakrai, Kampanee Wongtongkam
Released in Thai cinemas on: January 14, 2010
Rated: 13+
Language: Thai
Subtitle: -
Country: Thai

PLOT:

Kru Bannok Ban Nonghi Yai (ครูบ้านนอก บ้านหนองฮีใหญ่, literal title The Country Teacher of Ban Nonghi Yai, international English title To Sir, With Love) is the same story as the 1978 film, about an idealistic young teacher who arrives to work at a ramshackle schoolhouse in a remote impoverished rural village in Northeastern Thailand. Like the original, the story is still set in the 1970s.

It is an old-fashioned tale, told in an old-fashioned way. The acting is wooden, the dialogue creaky and the drama feels lifeless and contrived.
Portrayed by Pichet Kongkarn, the teacher Pichet is an enthusiastic and idealistic young man whose virtuous ways rub off on everyone he comes into contact with.

He magically reforms the school's headmaster Kru Yai Chalee, who is a gambling addict, drunk and wife beater who also visits a brothel when he goes to town to pick up the teachers' salaries. He's played by Petthai "Mum Jokmok" Wongkumlao, a natural fit for the role because he's a native Northeasterner. On one hand it's great to see Mum taking on a meaty dramatic role, but on the other hand, his headmaster character is given to quips and wisecracks that are so constant he's somewhat annoying.

Other characters include Kru Chat (Asongkai Saengtam), another new faculty member who is more concerned with trying to bed local beauty Lamduan (Kampanee Wongtongkam) and looking cool in his sunglasses than he is educating the children. There is also Dao, the kind-hearted niece of the headmaster who only intends to teach at the country school until a job opens up in the city. She's played by Fonfa Patham.

Panna Rittikrai has a role as a wise man in the village who puts on a puppet show that depicts how pigeons fought an eagle. It's a proverb about standing united against an overwhelming threat. His methods inspire Kru Pichet, who quickly becomes a beloved and popular figure in the village. Later, Ajarn Panna emerges as the village's chief tactician and martial-arts expert. Indeed, the Ong-Bak stunt guru throws a few Muay Thai kicks when the going gets tough.
The village is so poor that the kids are all wearing old school uniforms, which are faded, torn and ragged. One family can't send its two boys to school at the same time because they can only afford one set of clothes. Pichet and Dao (Fonfa Patham) campaign to get the children new uniforms.

But the chief threat to the village is an illegal logging operation run by a "mafia" figure. With the gunman patrolling the woods, the villagers are unable to forage for plants, roots and mushrooms and they are starving.

Pichet, emboldened by his success in securing new school uniforms, exposes the illegal timber harvest, and risks his own life in doing so.
Released by Sahamongkol Film International and with Prachya Pinkaew among the producers -- though Surasee handled a large part of the financing -- Kru Bannok is unquestionably well-intentioned as it seeks to entertain while addressing serious issues.

More attention is paid to the tableau of old-timey Isaan culture. The soundtrack is in the Isaan language and there are ample scenes of wizened grannies spinning silk, women pounding rice grains and fetching water from the well and villagers foraging for food. The keening sound of the khene reed mouth organ of Isaan and Lao music dominates the film's score. There are even a couple of musical numbers as teacher Pichet takes a guitar in hand and rhapsodizes about the beauty of the countryside and its people.
Ultimately, Kru Bannok carries no weight because of its 1970s setting.

A truly updated Kru Bannok ought to depict what is it like in the Northeast Thailand of twenty-ten, and ask the questions nobody is asking and no one wants to or is able to answer. Are there are corrupt politicians? Are there influential figures encroaching on forests? Are young women still working in brothels? Are men still drinking and gambling their salaries away, and lying and beating their wives? How are people in Isaan eating these days? And what are the children learning?

This new Kru Bannok treats these issues as things of the past. I fear that audiences for the most part will dismiss them and learn nothing from this teacher drama. And that is the real tragedy of Kru Bannok Ban Nonghi Yai.

REF:

http://thaifilmjournal.blogspot.com/2010/01/review-kru-bannok.html
http://movie.sanook.com/movie/movie_16472.php
http://movie.mthai.com/movie-profile/new-movie/50891.html
http://www.siamzone.com/movie/m/5647/poster

TECHNICAL DATA:

Format                           : AVI
Format/Info                      : Audio Video Interleave
File size                        : 964 MiB
Duration                         : 1h 40mn
Overall bit rate                 : 1 339 Kbps

ID                               : 0
Format                           : MPEG-4 Visual
Format profile                   : Advanced Simple@L4
Format settings, BVOP            : No
Format settings, QPel            : No
Format settings, GMC             : No warppoints
Format settings, Matrix          : Default (H.263)
Codec ID                         : XVID
Codec ID/Hint                    : XviD
Duration                         : 1h 40mn
Bit rate                         : 1 199 Kbps
Width                            : 640 pixels
Height                           : 360 pixels
Display aspect ratio             : 16:9
Frame rate                       : 25.000 fps
Resolution                       : 8 bits
Colorimetry                      : 4:2:0
Scan type                        : Progressive
Bits/(Pixel*Frame)               : 0.208
Stream size                      : 863 MiB (90%)
Writing library                  : Magic0432

ID                               : 1
Format                           : MPEG Audio
Format version                   : Version 1
Format profile                   : Layer 3
Mode                             : Joint stereo
Codec ID                         : 55
Codec ID/Hint                    : MP3
Duration                         : 1h 40mn
Bit rate mode                    : Constant
Bit rate                         : 128 Kbps
Channel(s)                       : 2 channels
Sampling rate                    : 44.1 KHz
Stream size                      : 92.1 MiB (10%)
Alignment                        : Aligned on interleaves
Interleave, duration             : 26 ms (0.65 video frame)
Writing library                  : LAME3.97

SCREEN SHOT:

























YOUTUBE:




IMDB
IMDB Extra
More.Info
Category Thai Movie
Rating N/A
Size 965.59 MB
Show/Hide Files
26 files
AddDate 24/04/2010
Uploader ANONYMOUS
Speed 13.05 KB/sec
Down 153 times
peers seeds: 0, leechers: 0 = 0 peers
Who thanked
Report
Reseed


29/04/2010 03.20 am

grin.gifgrin.gifgrin.gifgrin.gifthank you much!!thumbsup.gifthumbsup.gifthumbsup.gifthumbsup.gif




ADS