User Info

ADS

Torrent’s details
Name Dragon Blade (2005)
  You will need to Register or Login to download!
Info Hash c11b0b91d06ed3f785082d136e585757011454ac
Description


http://en.wikipedia.org/wiki/DragonBlade:_The_Legend_of_Lang

Title: Dragon Blade
Traditional Chinese: 龍刀奇緣
AKA: DragonBlade: The Beginning | DragonBlade: The Legend of Lang
Genre: Animation | Action | Adventure | Comedy | Fantasy
Director: Antony Szeto
Producer: Stanley Tong | Wendy Choi
Writer: Trevor Morris
Cast: Karen Mok, Daniel Wu, Stephen Fung, Sandra Ng (voice)
Release Date: 6 January 2005 (Hong Kong)
Runtime: 85 min
Country: Hong Kong
Language: English | Mandarin | Cantonese
Subtitles: English

Trivia
First 3-D animated movie from Hong Kong or China.

Awards
Won the 2nd annual Hong Kong Digital Entertainment Excellence Award
Won 2006 Special Achievement in a First Feature Film Award from ASDA (now the Australian Directors Guild)

Synopsis
When a town is being attacked by a deadly creature Lang becomes the one to have to deal with it. But, only one thing can stop this menace is the Dragon Blade. Now the one person who knows where the blade is won't tell Lang, and even if he did, untold peril will fall on anyone who dares to find this legendary weapon.

General
Complete name                    : Dragon Blade (2005).avi
Format                           : AVI
Format/Info                      : Audio Video Interleave
File size                        : 700 MiB
Duration                         : 1h 24mn
Overall bit rate                 : 1 157 Kbps
Writing application              : VirtualDubMod 1.5.10.1 (build 2439/release)
Writing library                  : VirtualDubMod build 2439/release

Video
ID                               : 0
Format                           : MPEG-4 Visual
Format profile                   : Simple@L3
Format settings, BVOP            : Yes
Format settings, QPel            : No
Format settings, GMC             : No warppoints
Format settings, Matrix          : Default (MPEG)
Muxing mode                      : Packed bitstream
Codec ID                         : XVID
Codec ID/Hint                    : XviD
Duration                         : 1h 24mn
Bit rate                         : 954 Kbps
Width                            : 640 pixels
Height                           : 256 pixels
Display aspect ratio             : 2.500
Frame rate                       : 23.976 fps
Color space                      : YUV
Chroma subsampling               : 4:2:0
Bit depth                        : 8 bits
Scan type                        : Progressive
Bits/(Pixel*Frame)               : 0.243
Stream size                      : 577 MiB (82%)
Writing library                  : XviD 1.0.3 (UTC 2004-12-20)

Audio
ID                               : 1
Format                           : MPEG Audio
Format version                   : Version 1
Format profile                   : Layer 3
Mode                             : Dual mono
Codec ID                         : 55
Codec ID/Hint                    : MP3
Duration                         : 1h 24mn
Bit rate mode                    : Variable
Bit rate                         : 192 Kbps
Channel(s)                       : 2 channels
Sampling rate                    : 48.0 KHz
Stream size                      : 115 MiB (16%)
Alignment                        : Aligned on interleaves
Interleave, duration             : 24 ms (0.58 video frame)
Interleave, preload duration     : 508 ms
Writing library                  : LAME3.96r


IMDB
IMDB Extra
More.Info
Category Anime Movie
Rating
Size 700.59 MB
Show/Hide Files
4 files
AddDate 12/02/2011
Uploader ANONYMOUS
Speed 1.55 KB/sec
Down 307 times
peers seeds: 1, leechers: 0 = 1 peers
Who thanked
Report
Reseed


17/02/2013 04.10 pm

v10 A10 Great Rip. cool2.gif
08/02/2013 03.04 am

thanks smile1.gif
13/02/2011 03.51 pm

Thank you! smile1.gif
12/02/2011 03.41 pm

forget to say ty!
12/02/2011 03.41 pm

been looking for this one for ages.. (or almost). ohmy.gif
12/02/2011 03.11 pm





ADS